Ver Trailer

MKV 1080p | x265 HEVC | Español Latino [AC3 5.1 BD + .SRT + PGS] - Inglés [DTS 5.1 BD] | 3.62GB

MediaInfo

General Complete name : Victor.Frankenstein.2015.1080p.BluRay.x265.HEVC.DTS.Dual.Latino-Papelillio.mkv Format : Matroska Format version : Version 4 / Version 2 File size : 3.62 GiB Duration : 1h 49mn Overall bit rate : 4 722 Kbps Encoded date : UTC 2016-03-09 18:23:53 Writing application : mkvmerge v7.9.0 ('Birds') 64bit Writing library : libebml v1.3.1 + libmatroska v1.4.2 Video ID : 1 Format : HEVC Format/Info : High Efficiency Video Coding Format profile : Main@L4@Main Codec ID : V_MPEGH/ISO/HEVC Duration : 1h 49mn Bit rate : 2 753 Kbps Width : 1 920 pixels Height : 1 080 pixels Display aspect ratio : 16:9 Frame rate mode : Constant Frame rate : 23.976 (24000/1001) fps Color space : YUV Chroma subsampling : 4:2:0 Bit depth : 8 bits Bits/(Pixel*Frame) : 0.055 Stream size : 2.11 GiB (58%) Title : Fuente Encodeo: BD50 - Papelillio Writing library : x265 1.9:[Windows][GCC 4.9.0][64 bit] 8bit Encoding settings : wpp / ctu=64 / min-cu-size=8 / max-tu-size=32 / tu-intra-depth=1 / tu-inter-depth=1 / me=3 / subme=3 / merange=57 / rect / no-amp / max-merge=3 / temporal-mvp / no-early-skip / rdpenalty=0 / no-tskip / no-tskip-fast / strong-intra-smoothing / no-lossless / no-cu-lossless / no-constrained-intra / no-fast-intra / open-gop / no-temporal-layers / interlace=0 / keyint=240 / min-keyint=24 / scenecut=40 / rc-lookahead=25 / lookahead-slices=4 / bframes=4 / bframe-bias=0 / b-adapt=2 / ref=4 / limit-refs=3 / limit-modes / weightp / no-weightb / aq-mode=1 / qg-size=32 / aq-strength=1.00 / cbqpoffs=0 / crqpoffs=0 / rd=4 / psy-rd=2.00 / rdoq-level=2 / psy-rdoq=1.00 / signhide / deblock / sao / no-sao-non-deblock / b-pyramid / cutree / no-intra-refresh / rc=crf / crf=20.0 / qcomp=0.60 / qpmin=0 / qpmax=51 / qpstep=4 / ipratio=1.40 / pbratio=1.30 Default : Yes Forced : No Color range : Limited Color primaries : BT.709 Transfer characteristics : BT.709 Matrix coefficients : BT.709 Audio #1 ID : 2 Format : AC-3 Format/Info : Audio Coding 3 Mode extension : CM (complete main) Format settings, Endianness : Big Codec ID : A_AC3 Duration : 1h 49mn Bit rate mode : Constant Bit rate : 448 Kbps Channel(s) : 6 channels Channel positions : Front: L C R, Side: L R, LFE Sampling rate : 48.0 KHz Frame rate : 31.250 fps (1536 spf) Compression mode : Lossy Delay relative to video : -83ms Stream size : 352 MiB (9%) Title : Audio Español Latino AC3 5.1 @448Kbps - Papelillio Language : Spanish Default : Yes Forced : No Audio #2 ID : 3 Format : DTS Format/Info : Digital Theater Systems Format profile : ES Matrix / Core Mode : 16 Format settings, Endianness : Big Codec ID : A_DTS Duration : 1h 49mn Bit rate mode : Constant Bit rate : 1 509 Kbps Channel(s) : 7 channels / 6 channels Channel positions : Front: L C R, Side: L R, Back: C, LFE / Front: L C R, Side: L R, LFE Sampling rate : 48.0 KHz Frame rate : 93.750 fps (512 spf) Bit depth : 24 bits Compression mode : Lossy Delay relative to video : -83ms Stream size : 1.16 GiB (32%) Title : Audio Inglés DTS 5.1 @1509Kbps - Papelillio Language : English Default : No Forced : No Text #1 ID : 4 Format : UTF-8 Codec ID : S_TEXT/UTF8 Codec ID/Info : UTF-8 Plain Text Duration : 1h 48mn Bit rate : 48 bps Count of elements : 1167 Stream size : 38.5 KiB (0%) Title : Subtítulos Español Latino (SRT) - Papelillio Language : Spanish Default : No Forced : No Text #2 ID : 5 Format : PGS Muxing mode : zlib Codec ID : S_HDMV/PGS Codec ID/Info : Picture based subtitle format used on BDs/HD-DVDs Duration : 1h 49mn Bit rate : 8 572 bps Count of elements : 2338 Stream size : 6.69 MiB (0%) Title : Subtítulos Español Latino (PGS) - Papelillio Language : Spanish Default : No Forced : No Menu 00:00:00.000 : :Chapter 1 00:04:07.455 : :Chapter 2 00:08:06.986 : :Chapter 3 00:11:14.757 : :Chapter 4 00:15:20.461 : :Chapter 5 00:18:58.637 : :Chapter 6 00:22:27.346 : :Chapter 7 00:26:06.940 : :Chapter 8 00:28:59.320 : :Chapter 9 00:32:02.462 : :Chapter 10 00:36:01.534 : :Chapter 11 00:41:11.510 : :Chapter 12 00:46:17.775 : :Chapter 13 00:51:48.438 : :Chapter 14 00:56:42.774 : :Chapter 15 00:59:55.592 : :Chapter 16 01:02:37.670 : :Chapter 17 01:06:57.263 : :Chapter 18 01:11:25.281 : :Chapter 19 01:15:14.134 : :Chapter 20 01:18:10.435 : :Chapter 21 01:21:06.361 : :Chapter 22 01:25:20.573 : :Chapter 23 01:28:17.625 : :Chapter 24 01:33:35.359 : :Chapter 25 01:37:51.866 : :Chapter 26 01:41:33.003 : :Chapter 27 01:43:34.458 : :Chapter 28

Capturas de la Pelicula

  • Captura de Víctor Frankenstein (2015) 1080p x265 HEVC Latino – Inglés
  • Captura de Víctor Frankenstein (2015) 1080p x265 HEVC Latino – Inglés
  • Captura de Víctor Frankenstein (2015) 1080p x265 HEVC Latino – Inglés
  • Captura de Víctor Frankenstein (2015) 1080p x265 HEVC Latino – Inglés
Lista de enlaces para usuarios donadores

Al donar para la pagina se obtiene acceso a una membresia para poder tener mas links de descargas.

  Enlaces Donadores
Enlaces para usuarios anonimos:

Si no tienes acceso a la membresia, igualmente puedes descargar desde nuestro sitio.

  Enlaces Publicos
Password: