Ver Trailer

MKV 1080p | x265 HEVC | Español Latino AC3 5.1 [448 Kbps] + Inglés DTS 5.1 [1509 Kbps] | 1.93 GB

MediaInfo

Sully.2016.1080p.BluRay.x265.HEVC.Dual.Latino-Papelillio.mkv Format : Matroska Format version : Version 4 / Version 2 File size : 1.93 GiB Duration : 1h 35mn Overall bit rate : 2 881 Kbps Encoded date : UTC 2016-12-07 05:43:58 Writing application : mkvmerge v7.4.0 ('Circles') 64bit built on Dec 12 2014 12:19:56 Writing library : libebml v1.3.0 + libmatroska v1.4.1 DURATION : 01:32:30.087000000 NUMBER_OF_FRAMES : 86 NUMBER_OF_BYTES : 269300 _STATISTICS_WRITING_APP : mkvmerge v7.4.0 ('Circles') 64bit built on Dec 12 2014 12:19:56 _STATISTICS_WRITING_DATE_UT : 2016-12-07 05:43:58 _STATISTICS_TAGS : BPS DURATION NUMBER_OF_FRAMES NUMBER_OF_BYTES Video ID : 1 Format : HEVC Format/Info : High Efficiency Video Coding Format profile : Main@L4@Main Codec ID : V_MPEGH/ISO/HEVC Duration : 1h 35mn Bit rate : 1 736 Kbps Width : 1 920 pixels Height : 1 080 pixels Display aspect ratio : 16:9 Frame rate mode : Constant Frame rate : 23.976 fps Color space : YUV Chroma subsampling : 4:2:0 Bit depth : 8 bits Bits/(Pixel*Frame) : 0.035 Stream size : 1.16 GiB (60%) Title : Fuente Encodeo: BD50 - Papelillio Writing library : x265 1.9:[Windows][GCC 4.9.0][64 bit] 8bit Encoding settings : wpp / ctu=64 / min-cu-size=8 / max-tu-size=32 / tu-intra-depth=1 / tu-inter-depth=1 / me=3 / subme=3 / merange=57 / rect / no-amp / max-merge=3 / temporal-mvp / no-early-skip / rdpenalty=0 / no-tskip / no-tskip-fast / strong-intra-smoothing / no-lossless / no-cu-lossless / no-constrained-intra / no-fast-intra / open-gop / no-temporal-layers / interlace=0 / keyint=240 / min-keyint=24 / scenecut=40 / rc-lookahead=25 / lookahead-slices=4 / bframes=4 / bframe-bias=0 / b-adapt=2 / ref=4 / limit-refs=3 / limit-modes / weightp / no-weightb / aq-mode=1 / qg-size=32 / aq-strength=1.00 / cbqpoffs=0 / crqpoffs=0 / rd=4 / psy-rd=2.00 / rdoq-level=2 / psy-rdoq=1.00 / signhide / deblock / sao / no-sao-non-deblock / b-pyramid / cutree / no-intra-refresh / rc=crf / crf=20.0 / qcomp=0.60 / qpmin=0 / qpmax=51 / qpstep=4 / ipratio=1.40 / pbratio=1.30 Default : Yes Forced : No Color range : Limited Color primaries : BT.709 Transfer characteristics : BT.709 Matrix coefficients : BT.709 DURATION : 01:35:50.662000000 NUMBER_OF_FRAMES : 137877 NUMBER_OF_BYTES : 1277714832 _STATISTICS_WRITING_APP : mkvmerge v7.4.0 ('Circles') 64bit built on Dec 12 2014 12:19:56 _STATISTICS_WRITING_DATE_UT : 2016-12-07 05:43:58 _STATISTICS_TAGS : BPS DURATION NUMBER_OF_FRAMES NUMBER_OF_BYTES Audio #1 ID : 2 Format : AC-3 Format/Info : Audio Coding 3 Mode extension : CM (complete main) Format settings, Endianness : Big Codec ID : A_AC3 Duration : 1h 35mn Bit rate mode : Constant Bit rate : 448 Kbps Channel(s) : 6 channels Channel positions : Front: L C R, Side: L R, LFE Sampling rate : 48.0 KHz Compression mode : Lossy Delay relative to video : -83ms Stream size : 307 MiB (16%) Title : Audio Español Latino AC3 5.1 @448Kbps - Papelillio Language : Spanish Default : Yes Forced : No Audio #2 ID : 3 Format : AC-3 Format/Info : Audio Coding 3 Mode extension : CM (complete main) Format settings, Endianness : Big Codec ID : A_AC3 Duration : 1h 35mn Bit rate mode : Constant Bit rate : 640 Kbps Channel(s) : 6 channels Channel positions : Front: L C R, Side: L R, LFE Sampling rate : 48.0 KHz Compression mode : Lossy Delay relative to video : -83ms Stream size : 439 MiB (22%) Title : Audio Inglés AC3 5.1 @640Kbps - Papelillio Language : English Default : No Forced : No Text #1 ID : 4 Format : UTF-8 Codec ID : S_TEXT/UTF8 Codec ID/Info : UTF-8 Plain Text Title : Subtítulos Español Latino - Forzados (SRT) - Papelillio Language : Spanish Default : Yes Forced : No Text #2 ID : 5 Format : UTF-8 Codec ID : S_TEXT/UTF8 Codec ID/Info : UTF-8 Plain Text Title : Subtítulos Español Latino (SRT) - Papelillio Language : Spanish Default : No Forced : No Text #3 ID : 6 Format : PGS Muxing mode : zlib Codec ID : S_HDMV/PGS Codec ID/Info : Picture based subtitle format used on BDs/HD-DVDs Title : Subtítulos Español Latino - Forzados (PGS) - Papelillio Language : Spanish Default : No Forced : No Text #4 ID : 7 Format : PGS Muxing mode : zlib Codec ID : S_HDMV/PGS Codec ID/Info : Picture based subtitle format used on BDs/HD-DVDs Title : Subtítulos Español Latino (PGS) - Papelillio Language : Spanish Default : No Forced : No Menu 00:00:00.000 : :Chapter 1 00:11:12.588 : :Chapter 2 00:18:06.251 : :Chapter 3 00:29:58.004 : :Chapter 4 00:38:55.499 : :Chapter 5 00:49:20.832 : :Chapter 6 01:00:50.939 : :Chapter 7 01:08:16.467 : :Chapter 8 01:18:09.893 : :Chapter 9 01:26:59.881 : :Chapter 10

Capturas de la Pelicula

  • Captura de Sully.2016.1080p.BluRay.x265.HEVC.Dual.Latino-Papelillio
  • Captura de Sully.2016.1080p.BluRay.x265.HEVC.Dual.Latino-Papelillio
  • Captura de Sully.2016.1080p.BluRay.x265.HEVC.Dual.Latino-Papelillio
  • Captura de Sully.2016.1080p.BluRay.x265.HEVC.Dual.Latino-Papelillio
Lista de enlaces para usuarios donadores

Al donar para la pagina se obtiene acceso a una membresia para poder tener mas links de descargas.

  Enlaces Donadores
Enlaces para usuarios anonimos:

Si no tienes acceso a la membresia, igualmente puedes descargar desde nuestro sitio.

  Enlaces Publicos
Password: