Ver Trailer

MKV 1080p | x265 HEVC | Español Latino AC3 5.1 [448 Kbps] | 1.88 GB

MediaInfo

Storks.2016.1080p.BluRay.x265.HEVC.Latino-Papelillio.mkv Format : Matroska Format version : Version 4 / Version 2 File size : 1.88 GiB Duration : 1h 26mn Overall bit rate : 3 094 Kbps Encoded date : UTC 2016-12-08 03:55:05 Writing application : mkvmerge v7.4.0 ('Circles') 64bit built on Dec 12 2014 12:19:56 Writing library : libebml v1.3.0 + libmatroska v1.4.1 DURATION : 01:26:57.824000000 NUMBER_OF_FRAMES : 163057 NUMBER_OF_BYTES : 292198144 _STATISTICS_WRITING_APP : mkvmerge v7.4.0 ('Circles') 64bit built on Dec 12 2014 12:19:56 _STATISTICS_WRITING_DATE_UT : 2016-12-08 03:55:05 _STATISTICS_TAGS : BPS DURATION NUMBER_OF_FRAMES NUMBER_OF_BYTES Video ID : 1 Format : HEVC Format/Info : High Efficiency Video Coding Format profile : Main@L4@Main Codec ID : V_MPEGH/ISO/HEVC Duration : 1h 26mn Bit rate : 2 585 Kbps Width : 1 920 pixels Height : 1 080 pixels Display aspect ratio : 16:9 Frame rate mode : Constant Frame rate : 23.976 fps Color space : YUV Chroma subsampling : 4:2:0 Bit depth : 8 bits Bits/(Pixel*Frame) : 0.052 Stream size : 1.57 GiB (84%) Title : Fuente Encodeo: BD50 - Papelillio Writing library : x265 1.9:[Windows][GCC 4.9.0][64 bit] 8bit Encoding settings : wpp / ctu=64 / min-cu-size=8 / max-tu-size=32 / tu-intra-depth=1 / tu-inter-depth=1 / me=3 / subme=3 / merange=57 / rect / no-amp / max-merge=3 / temporal-mvp / no-early-skip / rdpenalty=0 / no-tskip / no-tskip-fast / strong-intra-smoothing / no-lossless / no-cu-lossless / no-constrained-intra / no-fast-intra / open-gop / no-temporal-layers / interlace=0 / keyint=240 / min-keyint=24 / scenecut=40 / rc-lookahead=25 / lookahead-slices=4 / bframes=4 / bframe-bias=0 / b-adapt=2 / ref=4 / limit-refs=3 / limit-modes / weightp / no-weightb / aq-mode=1 / qg-size=32 / aq-strength=1.00 / cbqpoffs=0 / crqpoffs=0 / rd=4 / psy-rd=2.00 / rdoq-level=2 / psy-rdoq=1.00 / signhide / deblock / sao / no-sao-non-deblock / b-pyramid / cutree / no-intra-refresh / rc=crf / crf=20.0 / qcomp=0.60 / qpmin=0 / qpmax=51 / qpstep=4 / ipratio=1.40 / pbratio=1.30 Default : Yes Forced : No Color range : Limited Color primaries : BT.709 Transfer characteristics : BT.709 Matrix coefficients : BT.709 DURATION : 01:26:57.796000000 NUMBER_OF_FRAMES : 125102 NUMBER_OF_BYTES : 1724938861 _STATISTICS_WRITING_APP : mkvmerge v7.4.0 ('Circles') 64bit built on Dec 12 2014 12:19:56 _STATISTICS_WRITING_DATE_UT : 2016-12-08 03:55:05 _STATISTICS_TAGS : BPS DURATION NUMBER_OF_FRAMES NUMBER_OF_BYTES Audio ID : 2 Format : AC-3 Format/Info : Audio Coding 3 Mode extension : CM (complete main) Format settings, Endianness : Big Codec ID : A_AC3 Duration : 1h 26mn Bit rate mode : Constant Bit rate : 448 Kbps Channel(s) : 6 channels Channel positions : Front: L C R, Side: L R, LFE Sampling rate : 48.0 KHz Compression mode : Lossy Delay relative to video : -83ms Stream size : 279 MiB (14%) Title : Audio Español Latino AC3 5.1 @448Kbps - Papelillio Language : Spanish Default : Yes Forced : No Menu 00:00:00.000 : :Chapter 1 00:10:26.584 : :Chapter 2 00:20:35.817 : :Chapter 3 00:30:24.489 : :Chapter 4 00:39:30.117 : :Chapter 5 00:50:24.563 : :Chapter 6 00:59:24.519 : :Chapter 7 01:07:06.105 : :Chapter 8 01:14:28.380 : :Chapter 9 01:20:53.682 : :Chapter 10

Capturas de la Pelicula

  • Captura de Storks.2016.1080p.BluRay.x265.HEVC.Latino-Papelillio
  • Captura de Storks.2016.1080p.BluRay.x265.HEVC.Latino-Papelillio
  • Captura de Storks.2016.1080p.BluRay.x265.HEVC.Latino-Papelillio
  • Captura de Storks.2016.1080p.BluRay.x265.HEVC.Latino-Papelillio
Lista de enlaces para usuarios donadores

Al donar para la pagina se obtiene acceso a una membresia para poder tener mas links de descargas.

  Enlaces Donadores
Enlaces para usuarios anonimos:

Si no tienes acceso a la membresia, igualmente puedes descargar desde nuestro sitio.

  Enlaces Publicos
Password: