Ver Trailer

MKV 1080p | x265 HEVC | Español Latino [AC3 5.1 BD + .SRT + PGS] - Inglés [DTS 5.1 BD] | 4.63GB

MediaInfo

General Complete name : Star.Wars.Episode.VII.The.Force.Awakens.2015.1080p.BluRay.x265.HEVC.DTS.Dual.Latino-Papelillio.mkv Format : Matroska Format version : Version 4 / Version 2 File size : 4.63 GiB Duration : 2h 18mn Overall bit rate : 4 801 Kbps Encoded date : UTC 2016-03-23 10:31:23 Writing application : mkvmerge v7.9.0 ('Birds') 64bit Writing library : libebml v1.3.1 + libmatroska v1.4.2 Video ID : 1 Format : HEVC Format/Info : High Efficiency Video Coding Format profile : Main@L4@Main Codec ID : V_MPEGH/ISO/HEVC Duration : 2h 18mn Bit rate : 2 642 Kbps Width : 1 920 pixels Height : 1 080 pixels Display aspect ratio : 16:9 Frame rate mode : Constant Frame rate : 23.976 (24000/1001) fps Color space : YUV Chroma subsampling : 4:2:0 Bit depth : 8 bits Bits/(Pixel*Frame) : 0.053 Stream size : 2.55 GiB (55%) Title : Fuente Encodeo: BD50 - Papelillio Writing library : x265 1.9:[Windows][GCC 4.9.0][64 bit] 8bit Encoding settings : wpp / ctu=64 / min-cu-size=8 / max-tu-size=32 / tu-intra-depth=1 / tu-inter-depth=1 / me=3 / subme=3 / merange=57 / rect / no-amp / max-merge=3 / temporal-mvp / no-early-skip / rdpenalty=0 / no-tskip / no-tskip-fast / strong-intra-smoothing / no-lossless / no-cu-lossless / no-constrained-intra / no-fast-intra / open-gop / no-temporal-layers / interlace=0 / keyint=240 / min-keyint=24 / scenecut=40 / rc-lookahead=25 / lookahead-slices=4 / bframes=4 / bframe-bias=0 / b-adapt=2 / ref=4 / limit-refs=3 / limit-modes / weightp / no-weightb / aq-mode=1 / qg-size=32 / aq-strength=1.00 / cbqpoffs=0 / crqpoffs=0 / rd=4 / psy-rd=2.00 / rdoq-level=2 / psy-rdoq=1.00 / signhide / deblock / sao / no-sao-non-deblock / b-pyramid / cutree / no-intra-refresh / rc=crf / crf=20.0 / qcomp=0.60 / qpmin=0 / qpmax=51 / qpstep=4 / ipratio=1.40 / pbratio=1.30 Default : Yes Forced : No Color range : Limited Color primaries : BT.709 Transfer characteristics : BT.709 Matrix coefficients : BT.709 Audio #1 ID : 2 Format : AC-3 Format/Info : Audio Coding 3 Mode extension : CM (complete main) Format settings, Endianness : Big Codec ID : A_AC3 Duration : 2h 18mn Bit rate mode : Constant Bit rate : 640 Kbps Channel(s) : 6 channels Channel positions : Front: L C R, Side: L R, LFE Sampling rate : 48.0 KHz Frame rate : 31.250 fps (1536 spf) Compression mode : Lossy Delay relative to video : -83ms Stream size : 632 MiB (13%) Title : Audio Español Latino AC3 5.1 @640Kbps - Papelillio Language : Spanish Default : Yes Forced : No Audio #2 ID : 3 Format : DTS Format/Info : Digital Theater Systems Mode : 16 Format settings, Endianness : Big Codec ID : A_DTS Duration : 2h 18mn Bit rate mode : Constant Bit rate : 1 509 Kbps Channel(s) : 6 channels Channel positions : Front: L C R, Side: L R, LFE Sampling rate : 48.0 KHz Frame rate : 93.750 fps (512 spf) Bit depth : 24 bits Compression mode : Lossy Delay relative to video : -83ms Stream size : 1.46 GiB (31%) Title : Audio Inglés DTS 5.1 @1509Kbps - Papelillio Language : English Default : No Forced : No Text #1 ID : 4 Format : UTF-8 Codec ID : S_TEXT/UTF8 Codec ID/Info : UTF-8 Plain Text Duration : 13mn 57s Bit rate : 2 bps Count of elements : 7 Stream size : 217 Bytes (0%) Title : Subtítulos Español Latino - Forzados (SRT) - Papelillio Language : Spanish Default : Yes Forced : No Text #2 ID : 5 Format : UTF-8 Codec ID : S_TEXT/UTF8 Codec ID/Info : UTF-8 Plain Text Duration : 2h 3mn Bit rate : 40 bps Count of elements : 1324 Stream size : 36.8 KiB (0%) Title : Subtítulos Español Latino (SRT) - Papelillio Language : Spanish Default : No Forced : No Text #3 ID : 6 Format : PGS Muxing mode : zlib Codec ID : S_HDMV/PGS Codec ID/Info : Picture based subtitle format used on BDs/HD-DVDs Duration : 58mn 42s Bit rate : 89 bps Count of elements : 16 Stream size : 38.4 KiB (0%) Title : Subtítulos Español Latino - Forzados (PGS) - Papelillio Language : Spanish Default : No Forced : No Text #4 ID : 7 Format : PGS Muxing mode : zlib Codec ID : S_HDMV/PGS Codec ID/Info : Picture based subtitle format used on BDs/HD-DVDs Duration : 2h 3mn Bit rate : 8 061 bps Count of elements : 2648 Stream size : 7.10 MiB (0%) Title : Subtítulos Español Latino (PGS) - Papelillio Language : Spanish Default : No Forced : No Menu 00:00:00.000 : :Chapter 1 00:00:09.301 : :Chapter 2 00:01:43.103 : :Chapter 3 00:03:51.898 : :Chapter 4 00:06:12.330 : :Chapter 5 00:09:33.990 : :Chapter 6 00:10:43.601 : :Chapter 7 00:12:35.755 : :Chapter 8 00:13:39.735 : :Chapter 9 00:14:48.262 : :Chapter 10 00:16:45.963 : :Chapter 11 00:18:04.625 : :Chapter 12 00:19:21.577 : :Chapter 13 00:21:26.660 : :Chapter 14 00:24:03.692 : :Chapter 15 00:26:47.063 : :Chapter 16 00:29:54.709 : :Chapter 17 00:31:49.365 : :Chapter 18 00:35:51.816 : :Chapter 19 00:36:40.656 : :Chapter 20 00:37:45.555 : :Chapter 21 00:40:19.291 : :Chapter 22 00:43:39.241 : :Chapter 23 00:45:29.601 : :Chapter 24 00:49:22.960 : :Chapter 25 00:51:19.993 : :Chapter 26 00:54:13.792 : :Chapter 27 00:59:48.835 : :Chapter 28 01:04:16.102 : :Chapter 29 01:08:37.279 : :Chapter 30 01:11:07.263 : :Chapter 31 01:15:16.428 : :Chapter 32 01:16:49.938 : :Chapter 33 01:19:37.564 : :Chapter 34 01:20:56.935 : :Chapter 35 01:25:36.214 : :Chapter 36 01:32:12.610 : :Chapter 37 01:35:29.056 : :Chapter 38 01:36:34.997 : :Chapter 39 01:39:28.671 : :Chapter 40 01:41:30.000 : :Chapter 41 01:42:57.546 : :Chapter 42 01:45:00.043 : :Chapter 43 01:50:33.752 : :Chapter 44 01:53:39.813 : :Chapter 45 01:55:22.207 : :Chapter 46 01:58:05.495 : :Chapter 47 02:01:05.633 : :Chapter 48 02:02:32.720 : :Chapter 49 02:07:07.620 : :Chapter 50

Capturas de la Pelicula

  • Captura de Star Wars: El Despertar de la Fuerza (2015) 1080p x265 HEVC Latino – Inglés
  • Captura de Star Wars: El Despertar de la Fuerza (2015) 1080p x265 HEVC Latino – Inglés
  • Captura de Star Wars: El Despertar de la Fuerza (2015) 1080p x265 HEVC Latino – Inglés
  • Captura de Star Wars: El Despertar de la Fuerza (2015) 1080p x265 HEVC Latino – Inglés
Lista de enlaces para usuarios donadores

Al donar para la pagina se obtiene acceso a una membresia para poder tener mas links de descargas.

  Enlaces Donadores
Enlaces para usuarios anonimos:

Si no tienes acceso a la membresia, igualmente puedes descargar desde nuestro sitio.

  Enlaces Publicos
Password: