Ver Trailer

MKV 1080p | x265 HEVC | Español Latino AC3 1.0 [192 Kbps] + Inglés DTS 5.1 [1509 Kbps] | 4.35 GB

MediaInfo

Pesadilla En La Calle Elm III (1987) 1080p BluRay x265 HEVC DTS Dual Latino.mkv Format : Matroska Format version : Version 4 / Version 2 File size : 4.35 GiB Duration : 1h 36mn Overall bit rate : 6 458 Kbps Encoded date : UTC 2016-10-30 15:10:33 Writing application : mkvmerge v8.6.1 ('Flying') 64bit Writing library : libebml v1.3.3 + libmatroska v1.4.4 DURATION : 01:36:11.266000000 NUMBER_OF_FRAMES : 1986 NUMBER_OF_BYTES : 19749183 _STATISTICS_WRITING_APP : mkvmerge v8.6.1 ('Flying') 64bit _STATISTICS_WRITING_DATE_UT : 2016-10-30 15:10:33 _STATISTICS_TAGS : BPS DURATION NUMBER_OF_FRAMES NUMBER_OF_BYTES Video ID : 1 Format : HEVC Format/Info : High Efficiency Video Coding Format profile : Main@L4@Main Codec ID : V_MPEGH/ISO/HEVC Duration : 1h 36mn Bit rate : 4 629 Kbps Width : 1 920 pixels Height : 1 080 pixels Display aspect ratio : 16:9 Frame rate mode : Constant Frame rate : 23.976 fps Color space : YUV Chroma subsampling : 4:2:0 Bit depth : 8 bits Bits/(Pixel*Frame) : 0.093 Stream size : 3.12 GiB (72%) Writing library : x265 1.9:[Windows][GCC 4.9.0][64 bit] 8bit Encoding settings : wpp / ctu=64 / min-cu-size=8 / max-tu-size=32 / tu-intra-depth=1 / tu-inter-depth=1 / me=3 / subme=3 / merange=57 / rect / no-amp / max-merge=3 / temporal-mvp / no-early-skip / rdpenalty=0 / no-tskip / no-tskip-fast / strong-intra-smoothing / no-lossless / no-cu-lossless / no-constrained-intra / no-fast-intra / open-gop / no-temporal-layers / interlace=0 / keyint=240 / min-keyint=24 / scenecut=40 / rc-lookahead=25 / lookahead-slices=4 / bframes=4 / bframe-bias=0 / b-adapt=2 / ref=4 / limit-refs=3 / limit-modes / weightp / no-weightb / aq-mode=1 / qg-size=32 / aq-strength=1.00 / cbqpoffs=0 / crqpoffs=0 / rd=4 / psy-rd=2.00 / rdoq-level=2 / psy-rdoq=1.00 / signhide / deblock / sao / no-sao-non-deblock / b-pyramid / cutree / no-intra-refresh / rc=crf / crf=20.0 / qcomp=0.60 / qpmin=0 / qpmax=51 / qpstep=4 / ipratio=1.40 / pbratio=1.30 Default : Yes Forced : No Color range : Limited Color primaries : BT.709 Transfer characteristics : BT.709 Matrix coefficients : BT.709 DURATION : 01:36:31.828000000 NUMBER_OF_FRAMES : 138865 NUMBER_OF_BYTES : 3422406772 _STATISTICS_WRITING_APP : mkvmerge v8.6.1 ('Flying') 64bit _STATISTICS_WRITING_DATE_UT : 2016-10-30 15:10:33 _STATISTICS_TAGS : BPS DURATION NUMBER_OF_FRAMES NUMBER_OF_BYTES Audio #1 ID : 2 Format : AC-3 Format/Info : Audio Coding 3 Mode extension : CM (complete main) Format settings, Endianness : Big Codec ID : A_AC3 Duration : 1h 36mn Bit rate mode : Constant Bit rate : 192 Kbps Channel(s) : 1 channel Channel positions : Front: C Sampling rate : 48.0 KHz Compression mode : Lossy Delay relative to video : -83ms Stream size : 133 MiB (3%) Title : Español Latino AC3 1.0 [192 Kbps] Language : Spanish Default : Yes Forced : No Audio #2 ID : 3 Format : DTS Format/Info : Digital Theater Systems Mode : 16 Format settings, Endianness : Big Codec ID : A_DTS Duration : 1h 36mn Bit rate mode : Constant Bit rate : 1 509 Kbps Channel(s) : 6 channels Channel positions : Front: L C R, Side: L R, LFE Sampling rate : 48.0 KHz Bit depth : 24 bits Compression mode : Lossy Delay relative to video : -83ms Stream size : 1.02 GiB (23%) Title : Inglés DTS 5.1 [1509 Kbps] Language : English Default : No Forced : No Text ID : 4 Format : PGS Codec ID : S_HDMV/PGS Codec ID/Info : Picture based subtitle format used on BDs/HD-DVDs Title : Subtítulos Español Latino [PGS] Language : Spanish Default : No Forced : No Menu 00:00:00.000 : :Chapter 1 00:03:21.951 : :Chapter 2 00:04:12.210 : :Chapter 3 00:08:31.177 : :Chapter 4 00:09:31.696 : :Chapter 5 00:14:37.585 : :Chapter 6 00:18:49.962 : :Chapter 7 00:22:50.827 : :Chapter 8 00:25:54.010 : :Chapter 9 00:29:25.513 : :Chapter 10 00:32:41.793 : :Chapter 11 00:35:38.886 : :Chapter 12 00:38:42.653 : :Chapter 13 00:40:16.706 : :Chapter 14 00:42:05.606 : :Chapter 15 00:47:44.528 : :Chapter 16 00:50:46.126 : :Chapter 17 00:54:43.363 : :Chapter 18 00:59:11.005 : :Chapter 19 01:02:54.437 : :Chapter 20 01:06:19.475 : :Chapter 21 01:10:41.570 : :Chapter 22 01:12:51.575 : :Chapter 23 01:14:56.992 : :Chapter 24 01:16:51.064 : :Chapter 25 01:18:58.817 : :Chapter 26 01:21:10.949 : :Chapter 27 01:24:17.218 : :Chapter 28 01:26:37.484 : :Chapter 29 01:30:57.410 : :Chapter 30 01:32:32.380 : :Chapter 31

Capturas de la Pelicula

  • Captura de Pesadilla En La Calle Elm III (1987) 1080p BluRay x265 HEVC DTS Dual Latino
  • Captura de Pesadilla En La Calle Elm III (1987) 1080p BluRay x265 HEVC DTS Dual Latino
  • Captura de Pesadilla En La Calle Elm III (1987) 1080p BluRay x265 HEVC DTS Dual Latino
  • Captura de Pesadilla En La Calle Elm III (1987) 1080p BluRay x265 HEVC DTS Dual Latino
Lista de enlaces para usuarios donadores

Al donar para la pagina se obtiene acceso a una membresia para poder tener mas links de descargas.

  Enlaces Donadores
Enlaces para usuarios anonimos:

Si no tienes acceso a la membresia, igualmente puedes descargar desde nuestro sitio.

  Enlaces Publicos
Password: