Ver Trailer

MKV 1080p | x265 HEVC | Español Latino AC3 1.0 [192 Kbps] + Inglés DTS 5.1 [1509 Kbps] | 4.39 GB

MediaInfo

Pesadilla En La Calle Elm II La Venganza De Freddy (1985) 1080p BluRay x265 HEVC DTS Dual Latino.mkv Format : Matroska Format version : Version 4 / Version 2 File size : 4.39 GiB Duration : 1h 25mn Overall bit rate : 7 339 Kbps Encoded date : UTC 2016-10-30 14:35:39 Writing application : mkvmerge v8.6.1 ('Flying') 64bit Writing library : libebml v1.3.3 + libmatroska v1.4.4 DURATION : 01:24:54.881000000 NUMBER_OF_FRAMES : 1410 NUMBER_OF_BYTES : 10754589 _STATISTICS_WRITING_APP : mkvmerge v8.6.1 ('Flying') 64bit _STATISTICS_WRITING_DATE_UT : 2016-10-30 14:35:39 _STATISTICS_TAGS : BPS DURATION NUMBER_OF_FRAMES NUMBER_OF_BYTES Video ID : 1 Format : HEVC Format/Info : High Efficiency Video Coding Format profile : Main@L4@Main Codec ID : V_MPEGH/ISO/HEVC Duration : 1h 25mn Bit rate : 5 492 Kbps Width : 1 920 pixels Height : 1 080 pixels Display aspect ratio : 16:9 Frame rate mode : Constant Frame rate : 23.976 fps Color space : YUV Chroma subsampling : 4:2:0 Bit depth : 8 bits Bits/(Pixel*Frame) : 0.110 Stream size : 3.28 GiB (75%) Writing library : x265 1.9:[Windows][GCC 4.9.0][64 bit] 8bit Encoding settings : wpp / ctu=64 / min-cu-size=8 / max-tu-size=32 / tu-intra-depth=1 / tu-inter-depth=1 / me=3 / subme=3 / merange=57 / rect / no-amp / max-merge=3 / temporal-mvp / no-early-skip / rdpenalty=0 / no-tskip / no-tskip-fast / strong-intra-smoothing / no-lossless / no-cu-lossless / no-constrained-intra / no-fast-intra / open-gop / no-temporal-layers / interlace=0 / keyint=240 / min-keyint=24 / scenecut=40 / rc-lookahead=25 / lookahead-slices=4 / bframes=4 / bframe-bias=0 / b-adapt=2 / ref=4 / limit-refs=3 / limit-modes / weightp / no-weightb / aq-mode=1 / qg-size=32 / aq-strength=1.00 / cbqpoffs=0 / crqpoffs=0 / rd=4 / psy-rd=2.00 / rdoq-level=2 / psy-rdoq=1.00 / signhide / deblock / sao / no-sao-non-deblock / b-pyramid / cutree / no-intra-refresh / rc=crf / crf=20.0 / qcomp=0.60 / qpmin=0 / qpmax=51 / qpstep=4 / ipratio=1.40 / pbratio=1.30 Default : Yes Forced : No Color range : Limited Color primaries : BT.709 Transfer characteristics : BT.709 Matrix coefficients : BT.709 DURATION : 01:25:37.174000000 NUMBER_OF_FRAMES : 123169 NUMBER_OF_BYTES : 3607940198 _STATISTICS_WRITING_APP : mkvmerge v8.6.1 ('Flying') 64bit _STATISTICS_WRITING_DATE_UT : 2016-10-30 14:35:39 _STATISTICS_TAGS : BPS DURATION NUMBER_OF_FRAMES NUMBER_OF_BYTES Audio #1 ID : 2 Format : AC-3 Format/Info : Audio Coding 3 Mode extension : CM (complete main) Format settings, Endianness : Big Codec ID : A_AC3 Duration : 1h 25mn Bit rate mode : Constant Bit rate : 192 Kbps Channel(s) : 1 channel Channel positions : Front: C Sampling rate : 48.0 KHz Compression mode : Lossy Delay relative to video : -83ms Stream size : 118 MiB (3%) Title : Español Latino AC3 1.0 [192 Kbps] Language : Spanish Default : Yes Forced : No Audio #2 ID : 3 Format : DTS Format/Info : Digital Theater Systems Mode : 16 Format settings, Endianness : Big Codec ID : A_DTS Duration : 1h 25mn Bit rate mode : Constant Bit rate : 1 509 Kbps Channel(s) : 6 channels Channel positions : Front: L C R, Side: L R, LFE Sampling rate : 48.0 KHz Bit depth : 24 bits Compression mode : Lossy Delay relative to video : -83ms Stream size : 924 MiB (21%) Title : Inglés DTS 5.1 [1509 Kbps] Language : English Default : No Forced : No Text ID : 4 Format : PGS Codec ID : S_HDMV/PGS Codec ID/Info : Picture based subtitle format used on BDs/HD-DVDs Title : Subtítulos Español Latino [PGS] Language : Spanish Default : No Forced : No Menu 00:00:00.000 : :Chapter 1 00:06:42.860 : :Chapter 2 00:08:30.343 : :Chapter 3 00:12:04.015 : :Chapter 4 00:16:01.919 : :Chapter 5 00:18:02.498 : :Chapter 6 00:23:02.756 : :Chapter 7 00:26:25.834 : :Chapter 8 00:27:58.343 : :Chapter 9 00:30:40.588 : :Chapter 10 00:33:11.572 : :Chapter 11 00:37:27.537 : :Chapter 12 00:40:01.524 : :Chapter 13 00:42:59.702 : :Chapter 14 00:46:07.473 : :Chapter 15 00:49:09.655 : :Chapter 16 00:54:03.615 : :Chapter 17 00:57:33.533 : :Chapter 18 01:01:30.603 : :Chapter 19 01:04:21.816 : :Chapter 20 01:08:07.750 : :Chapter 21 01:11:15.688 : :Chapter 22 01:14:57.659 : :Chapter 23 01:17:30.228 : :Chapter 24 01:20:32.494 : :Chapter 25 01:22:50.048 : :Chapter 26

Capturas de la Pelicula

  • Captura de Pesadilla En La Calle Elm II La Venganza De Freddy (1985) 1080p BluRay x265 HEVC DTS Dual Latino
  • Captura de Pesadilla En La Calle Elm II La Venganza De Freddy (1985) 1080p BluRay x265 HEVC DTS Dual Latino
  • Captura de Pesadilla En La Calle Elm II La Venganza De Freddy (1985) 1080p BluRay x265 HEVC DTS Dual Latino
  • Captura de Pesadilla En La Calle Elm II La Venganza De Freddy (1985) 1080p BluRay x265 HEVC DTS Dual Latino
Lista de enlaces para usuarios donadores

Al donar para la pagina se obtiene acceso a una membresia para poder tener mas links de descargas.

  Enlaces Donadores
Enlaces para usuarios anonimos:

Si no tienes acceso a la membresia, igualmente puedes descargar desde nuestro sitio.

  Enlaces Publicos
Password: