Ver Trailer

MKV 1080p | x265 HEVC | Español Latino AC3 5.1 [640 Kbps] + Inglés DTS 5.1 [1509 Kbps] | 3.05 GB

MediaInfo

Pesadilla En La Calle Elm (2010) 1080p BluRay x265 HEVC DTS Dual Latino.mkv Format : Matroska Format version : Version 4 / Version 2 File size : 3.05 GiB Duration : 1h 35mn Overall bit rate : 4 569 Kbps Encoded date : UTC 2016-10-09 16:52:43 Writing application : mkvmerge v8.6.1 ('Flying') 64bit Writing library : libebml v1.3.3 + libmatroska v1.4.4 DURATION : 01:34:48.433000000 NUMBER_OF_FRAMES : 1648 NUMBER_OF_BYTES : 12656034 _STATISTICS_WRITING_APP : mkvmerge v8.6.1 ('Flying') 64bit _STATISTICS_WRITING_DATE_UT : 2016-10-09 16:52:43 _STATISTICS_TAGS : BPS DURATION NUMBER_OF_FRAMES NUMBER_OF_BYTES Video ID : 1 Format : HEVC Format/Info : High Efficiency Video Coding Format profile : Main@L4@Main Codec ID : V_MPEGH/ISO/HEVC Duration : 1h 35mn Bit rate : 2 329 Kbps Width : 1 920 pixels Height : 1 080 pixels Display aspect ratio : 16:9 Frame rate mode : Constant Frame rate : 23.976 fps Color space : YUV Chroma subsampling : 4:2:0 Bit depth : 8 bits Bits/(Pixel*Frame) : 0.047 Stream size : 1.55 GiB (51%) Writing library : x265 1.9:[Windows][GCC 4.9.0][64 bit] 8bit Encoding settings : wpp / ctu=64 / min-cu-size=8 / max-tu-size=32 / tu-intra-depth=1 / tu-inter-depth=1 / me=3 / subme=3 / merange=57 / rect / no-amp / max-merge=3 / temporal-mvp / no-early-skip / rdpenalty=0 / no-tskip / no-tskip-fast / strong-intra-smoothing / no-lossless / no-cu-lossless / no-constrained-intra / no-fast-intra / open-gop / no-temporal-layers / interlace=0 / keyint=240 / min-keyint=24 / scenecut=40 / rc-lookahead=25 / lookahead-slices=4 / bframes=4 / bframe-bias=0 / b-adapt=2 / ref=4 / limit-refs=3 / limit-modes / weightp / no-weightb / aq-mode=1 / qg-size=32 / aq-strength=1.00 / cbqpoffs=0 / crqpoffs=0 / rd=4 / psy-rd=2.00 / rdoq-level=2 / psy-rdoq=1.00 / signhide / deblock / sao / no-sao-non-deblock / b-pyramid / cutree / no-intra-refresh / rc=crf / crf=20.0 / qcomp=0.60 / qpmin=0 / qpmax=51 / qpstep=4 / ipratio=1.40 / pbratio=1.30 Default : Yes Forced : No Color range : Limited Color primaries : BT.709 Transfer characteristics : BT.709 Matrix coefficients : BT.709 DURATION : 01:35:31.768000000 NUMBER_OF_FRAMES : 137425 NUMBER_OF_BYTES : 1719104094 _STATISTICS_WRITING_APP : mkvmerge v8.6.1 ('Flying') 64bit _STATISTICS_WRITING_DATE_UT : 2016-10-09 16:52:43 _STATISTICS_TAGS : BPS DURATION NUMBER_OF_FRAMES NUMBER_OF_BYTES Audio #1 ID : 2 Format : AC-3 Format/Info : Audio Coding 3 Mode extension : CM (complete main) Format settings, Endianness : Big Codec ID : A_AC3 Duration : 1h 35mn Bit rate mode : Constant Bit rate : 640 Kbps Channel(s) : 6 channels Channel positions : Front: L C R, Side: L R, LFE Sampling rate : 48.0 KHz Compression mode : Lossy Delay relative to video : -83ms Stream size : 437 MiB (14%) Title : Español Latino AC3 5.1 [640 Kbps] Language : Spanish Default : Yes Forced : No Audio #2 ID : 3 Format : DTS Format/Info : Digital Theater Systems Mode : 16 Format settings, Endianness : Big Codec ID : A_DTS Duration : 1h 35mn Bit rate mode : Constant Bit rate : 1 509 Kbps Channel(s) : 6 channels Channel positions : Front: L C R, Side: L R, LFE Sampling rate : 48.0 KHz Bit depth : 24 bits Compression mode : Lossy Delay relative to video : -83ms Stream size : 1.01 GiB (33%) Title : Inglés DTS 5.1 [1509 Kbps] Language : English Default : No Forced : No Text #1 ID : 4 Format : PGS Codec ID : S_HDMV/PGS Codec ID/Info : Picture based subtitle format used on BDs/HD-DVDs Title : Subtítulos Español Latino (PGS) Language : Spanish Default : No Forced : No Text #2 ID : 5 Format : PGS Codec ID : S_HDMV/PGS Codec ID/Info : Picture based subtitle format used on BDs/HD-DVDs Title : Subtítulos Español Latino - Forzados (PGS) Language : Spanish Default : No Forced : No Text #3 ID : 6 Format : UTF-8 Codec ID : S_TEXT/UTF8 Codec ID/Info : UTF-8 Plain Text Title : Subtítulos Español Latino - Forzados (SRT) Language : Spanish Default : No Forced : Yes Menu 00:00:00.000 : :Chapter 1 00:09:25.273 : :Chapter 2 00:20:58.841 : :Chapter 3 00:30:23.071 : :Chapter 4 00:40:56.120 : :Chapter 5 00:53:05.015 : :Chapter 6 01:01:10.041 : :Chapter 7 01:10:08.204 : :Chapter 8 01:20:01.046 : :Chapter 9 01:29:58.643 : :Chapter 10

Capturas de la Pelicula

  • Captura de Pesadilla En La Calle Elm (2010) 1080p BluRay x265 HEVC DTS Dual Latino
  • Captura de Pesadilla En La Calle Elm (2010) 1080p BluRay x265 HEVC DTS Dual Latino
  • Captura de Pesadilla En La Calle Elm (2010) 1080p BluRay x265 HEVC DTS Dual Latino
  • Captura de Pesadilla En La Calle Elm (2010) 1080p BluRay x265 HEVC DTS Dual Latino
Lista de enlaces para usuarios donadores

Al donar para la pagina se obtiene acceso a una membresia para poder tener mas links de descargas.

  Enlaces Donadores
Enlaces para usuarios anonimos:

Si no tienes acceso a la membresia, igualmente puedes descargar desde nuestro sitio.

  Enlaces Publicos
Password: