Ver Trailer

MKV 1080p | x265 HEVC | Español Latino AC3 5.1 [448 Kbps] + Inglés DTS 5.1 [1509 Kbps] | 2.42 GB

MediaInfo

Morgan.2016.1080p.BluRay.x265.HEVC.DTS.Dual.Latino-Papelillio.mkv Format : Matroska Format version : Version 4 / Version 2 File size : 2.42 GiB Duration : 1h 31mn Overall bit rate : 3 775 Kbps Encoded date : UTC 2016-12-05 07:40:49 Writing application : mkvmerge v7.4.0 ('Circles') 64bit built on Dec 12 2014 12:19:56 Writing library : libebml v1.3.0 + libmatroska v1.4.1 DURATION : 01:30:59.579000000 NUMBER_OF_FRAMES : 2132 NUMBER_OF_BYTES : 8091948 _STATISTICS_WRITING_APP : mkvmerge v7.4.0 ('Circles') 64bit built on Dec 12 2014 12:19:56 _STATISTICS_WRITING_DATE_UT : 2016-12-05 07:40:49 _STATISTICS_TAGS : BPS DURATION NUMBER_OF_FRAMES NUMBER_OF_BYTES Video ID : 1 Format : HEVC Format/Info : High Efficiency Video Coding Format profile : Main@L4@Main Codec ID : V_MPEGH/ISO/HEVC Duration : 1h 31mn Bit rate : 1 743 Kbps Width : 1 920 pixels Height : 1 080 pixels Display aspect ratio : 16:9 Frame rate mode : Constant Frame rate : 23.976 fps Color space : YUV Chroma subsampling : 4:2:0 Bit depth : 8 bits Bits/(Pixel*Frame) : 0.035 Stream size : 1.12 GiB (46%) Title : Fuente Encodeo: BD50 - Papelillio Writing library : x265 1.9:[Windows][GCC 4.9.0][64 bit] 8bit Encoding settings : wpp / ctu=64 / min-cu-size=8 / max-tu-size=32 / tu-intra-depth=1 / tu-inter-depth=1 / me=3 / subme=3 / merange=57 / rect / no-amp / max-merge=3 / temporal-mvp / no-early-skip / rdpenalty=0 / no-tskip / no-tskip-fast / strong-intra-smoothing / no-lossless / no-cu-lossless / no-constrained-intra / no-fast-intra / open-gop / no-temporal-layers / interlace=0 / keyint=240 / min-keyint=24 / scenecut=40 / rc-lookahead=25 / lookahead-slices=4 / bframes=4 / bframe-bias=0 / b-adapt=2 / ref=4 / limit-refs=3 / limit-modes / weightp / no-weightb / aq-mode=1 / qg-size=32 / aq-strength=1.00 / cbqpoffs=0 / crqpoffs=0 / rd=4 / psy-rd=2.00 / rdoq-level=2 / psy-rdoq=1.00 / signhide / deblock / sao / no-sao-non-deblock / b-pyramid / cutree / no-intra-refresh / rc=crf / crf=20.0 / qcomp=0.60 / qpmin=0 / qpmax=51 / qpstep=4 / ipratio=1.40 / pbratio=1.30 Default : Yes Forced : No Color range : Limited Color primaries : BT.709 Transfer characteristics : BT.709 Matrix coefficients : BT.709 DURATION : 01:31:52.632000000 NUMBER_OF_FRAMES : 132170 NUMBER_OF_BYTES : 1243112210 _STATISTICS_WRITING_APP : mkvmerge v7.4.0 ('Circles') 64bit built on Dec 12 2014 12:19:56 _STATISTICS_WRITING_DATE_UT : 2016-12-05 07:40:49 _STATISTICS_TAGS : BPS DURATION NUMBER_OF_FRAMES NUMBER_OF_BYTES Audio #1 ID : 2 Format : AC-3 Format/Info : Audio Coding 3 Mode extension : CM (complete main) Format settings, Endianness : Big Codec ID : A_AC3 Duration : 1h 31mn Bit rate mode : Constant Bit rate : 448 Kbps Channel(s) : 6 channels Channel positions : Front: L C R, Side: L R, LFE Sampling rate : 48.0 KHz Compression mode : Lossy Delay relative to video : -83ms Stream size : 294 MiB (12%) Title : Audio Español Latino AC3 5.1 @448Kbps - Papelillio Language : Spanish Default : Yes Forced : No Audio #2 ID : 3 Format : DTS Format/Info : Digital Theater Systems Mode : 16 Format settings, Endianness : Big Codec ID : A_DTS Duration : 1h 31mn Bit rate mode : Constant Bit rate : 1 509 Kbps Channel(s) : 6 channels Channel positions : Front: L C R, Side: L R, LFE Sampling rate : 48.0 KHz Bit depth : 24 bits Compression mode : Lossy Delay relative to video : -83ms Stream size : 992 MiB (40%) Title : Audio Inglés DTS 5.1 @1509Kbps - Papelillio Language : English Default : No Forced : No Text #1 ID : 4 Format : UTF-8 Codec ID : S_TEXT/UTF8 Codec ID/Info : UTF-8 Plain Text Title : Subtítulos Español Latino - Forzados (SRT) - Papelillio Language : Spanish Default : Yes Forced : No Text #2 ID : 5 Format : UTF-8 Codec ID : S_TEXT/UTF8 Codec ID/Info : UTF-8 Plain Text Title : Subtítulos Español Latino (SRT) - Papelillio Language : Spanish Default : No Forced : No Text #3 ID : 6 Format : PGS Muxing mode : zlib Codec ID : S_HDMV/PGS Codec ID/Info : Picture based subtitle format used on BDs/HD-DVDs Title : Subtítulos Español Latino (PGS) - Papelillio Language : Spanish Default : No Forced : No Menu 00:00:00.000 : :Chapter 1 00:03:43.139 : :Chapter 2 00:07:22.442 : :Chapter 3 00:11:41.826 : :Chapter 4 00:16:04.380 : :Chapter 5 00:20:30.312 : :Chapter 6 00:25:36.368 : :Chapter 7 00:28:45.557 : :Chapter 8 00:34:20.308 : :Chapter 9 00:37:17.902 : :Chapter 10 00:40:46.152 : :Chapter 11 00:43:47.166 : :Chapter 12 00:48:14.266 : :Chapter 13 00:51:28.794 : :Chapter 14 00:54:46.032 : :Chapter 15 00:59:51.087 : :Chapter 16 01:03:44.445 : :Chapter 17 01:08:01.660 : :Chapter 18 01:11:43.799 : :Chapter 19 01:13:46.463 : :Chapter 20 01:17:03.744 : :Chapter 21 01:20:01.713 : :Chapter 22 01:22:32.572 : :Chapter 23 01:25:10.980 : :Chapter 24

Capturas de la Pelicula

  • Captura de Morgan.2016.1080p.BluRay.x265.HEVC.DTS.Dual.Latino-Papelillio
  • Captura de Morgan.2016.1080p.BluRay.x265.HEVC.DTS.Dual.Latino-Papelillio
  • Captura de Morgan.2016.1080p.BluRay.x265.HEVC.DTS.Dual.Latino-Papelillio
  • Captura de Morgan.2016.1080p.BluRay.x265.HEVC.DTS.Dual.Latino-Papelillio
Lista de enlaces para usuarios donadores

Al donar para la pagina se obtiene acceso a una membresia para poder tener mas links de descargas.

  Enlaces Donadores
Enlaces para usuarios anonimos:

Si no tienes acceso a la membresia, igualmente puedes descargar desde nuestro sitio.

  Enlaces Publicos
Password: