Ver Trailer

MKV 1080p | x265 HEVC | Español Latino [AC3 5.1 BD + .SRT + PGS] - Inglés [DTS 5.1 BD] | 6.07GB

MediaInfo

General Complete name : The.Hunger.Games.2012.1080p.BluRay.x265.HEVC.DTS.Dual.Latino-Papelillio.mkv Format : Matroska Format version : Version 4 / Version 2 File size : 6.07 GiB Duration : 2h 22mn Overall bit rate : 6 098 Kbps Encoded date : UTC 2016-03-11 05:43:13 Writing application : mkvmerge v7.9.0 ('Birds') 64bit Writing library : libebml v1.3.1 + libmatroska v1.4.2 Video ID : 1 Format : HEVC Format/Info : High Efficiency Video Coding Format profile : Main@L4@Main Codec ID : V_MPEGH/ISO/HEVC Duration : 2h 22mn Bit rate : 3 941 Kbps Width : 1 920 pixels Height : 1 080 pixels Display aspect ratio : 16:9 Frame rate mode : Constant Frame rate : 23.976 (24000/1001) fps Color space : YUV Chroma subsampling : 4:2:0 Bit depth : 8 bits Bits/(Pixel*Frame) : 0.079 Stream size : 3.92 GiB (65%) Title : Fuente Encodeo: BD50 - Papelillio Writing library : x265 1.9:[Windows][GCC 4.9.0][64 bit] 8bit Encoding settings : wpp / ctu=64 / min-cu-size=8 / max-tu-size=32 / tu-intra-depth=1 / tu-inter-depth=1 / me=3 / subme=3 / merange=57 / rect / no-amp / max-merge=3 / temporal-mvp / no-early-skip / rdpenalty=0 / no-tskip / no-tskip-fast / strong-intra-smoothing / no-lossless / no-cu-lossless / no-constrained-intra / no-fast-intra / open-gop / no-temporal-layers / interlace=0 / keyint=240 / min-keyint=24 / scenecut=40 / rc-lookahead=25 / lookahead-slices=4 / bframes=4 / bframe-bias=0 / b-adapt=2 / ref=4 / limit-refs=3 / limit-modes / weightp / no-weightb / aq-mode=1 / qg-size=32 / aq-strength=1.00 / cbqpoffs=0 / crqpoffs=0 / rd=4 / psy-rd=2.00 / rdoq-level=2 / psy-rdoq=1.00 / signhide / deblock / sao / no-sao-non-deblock / b-pyramid / cutree / no-intra-refresh / rc=crf / crf=20.0 / qcomp=0.60 / qpmin=0 / qpmax=51 / qpstep=4 / ipratio=1.40 / pbratio=1.30 Default : Yes Forced : No Color range : Limited Color primaries : BT.709 Transfer characteristics : BT.709 Matrix coefficients : BT.709 Audio #1 ID : 2 Format : AC-3 Format/Info : Audio Coding 3 Mode extension : CM (complete main) Format settings, Endianness : Big Codec ID : A_AC3 Duration : 2h 22mn Bit rate mode : Constant Bit rate : 640 Kbps Channel(s) : 6 channels Channel positions : Front: L C R, Side: L R, LFE Sampling rate : 48.0 KHz Frame rate : 31.250 fps (1536 spf) Compression mode : Lossy Delay relative to video : -83ms Stream size : 653 MiB (10%) Title : Audio Español Latino AC3 5.1 @640Kbps - Papelillio Language : Spanish Default : Yes Forced : No Audio #2 ID : 3 Format : DTS Format/Info : Digital Theater Systems Mode : 16 Format settings, Endianness : Big Codec ID : A_DTS Duration : 2h 22mn Bit rate mode : Constant Bit rate : 1 509 Kbps Channel(s) : 6 channels Channel positions : Front: L C R, Side: L R, LFE Sampling rate : 48.0 KHz Frame rate : 93.750 fps (512 spf) Bit depth : 24 bits Compression mode : Lossy Delay relative to video : -83ms Stream size : 1.50 GiB (25%) Title : Audio Inglés DTS 5.1 @1509Kbps - Papelillio Language : English Default : No Forced : No Text #1 ID : 4 Format : UTF-8 Codec ID : S_TEXT/UTF8 Codec ID/Info : UTF-8 Plain Text Duration : 2h 1mn Bit rate : 0 bps Count of elements : 21 Stream size : 604 Bytes (0%) Title : Subtítulos Español Latino - Forzados (SRT) - Papelillio Language : Spanish Default : Yes Forced : No Text #2 ID : 5 Format : UTF-8 Codec ID : S_TEXT/UTF8 Codec ID/Info : UTF-8 Plain Text Duration : 2h 11mn Bit rate : 32 bps Count of elements : 1112 Stream size : 31.5 KiB (0%) Title : Subtítulos Español Latino (SRT) - Papelillio Language : Spanish Default : No Forced : No Text #3 ID : 6 Format : PGS Muxing mode : zlib Codec ID : S_HDMV/PGS Codec ID/Info : Picture based subtitle format used on BDs/HD-DVDs Duration : 2h 11mn Bit rate : 6 415 bps Count of elements : 2226 Stream size : 6.06 MiB (0%) Title : Subtítulos Español Latino (PGS) - Papelillio Language : Spanish Default : No Forced : No Menu 00:00:00.000 : :Chapter 3 00:10:05.062 : :Chapter 1 00:10:05.896 : :Chapter 2 00:17:59.912 : :Chapter 3 00:25:05.962 : :Chapter 4 00:31:12.203 : :Chapter 5 00:43:27.938 : :Chapter 6 00:50:37.993 : :Chapter 7 01:06:57.096 : :Chapter 8 01:06:57.847 : :Chapter 9 01:15:59.054 : :Chapter 10 01:22:06.129 : :Chapter 11 01:29:00.501 : :Chapter 12 01:38:00.833 : :Chapter 13 01:43:19.276 : :Chapter 14 01:57:56.694 : :Chapter 15 02:09:26.633 : :Chapter 16

Capturas de la Pelicula

  • Captura de Los Juegos del Hambre (2012) 1080p x265 HEVC Latino – Inglés
  • Captura de Los Juegos del Hambre (2012) 1080p x265 HEVC Latino – Inglés
  • Captura de Los Juegos del Hambre (2012) 1080p x265 HEVC Latino – Inglés
  • Captura de Los Juegos del Hambre (2012) 1080p x265 HEVC Latino – Inglés
Lista de enlaces para usuarios donadores

Al donar para la pagina se obtiene acceso a una membresia para poder tener mas links de descargas.

  Enlaces Donadores
Enlaces para usuarios anonimos:

Si no tienes acceso a la membresia, igualmente puedes descargar desde nuestro sitio.

  Enlaces Publicos
Password: