Ver Trailer

MKV 1080p | x265 HEVC | Español Latino AC3 5.1 [448 Kbps] + Inglés DTS 5.1 [1509 Kbps] | 3.40 GB

MediaInfo

La Era De Hielo Choque De Mundos (2016) 1080p BluRay x265 HEVC DTS Dual Latino.mkv Format : Matroska Format version : Version 4 / Version 2 File size : 3.40 GiB Duration : 1h 34mn Overall bit rate : 5 154 Kbps Encoded date : UTC 2016-10-07 00:43:58 Writing application : mkvmerge v8.6.1 ('Flying') 64bit Writing library : libebml v1.3.3 + libmatroska v1.4.4 DURATION : 01:34:19.824000000 NUMBER_OF_FRAMES : 2424 NUMBER_OF_BYTES : 24236884 _STATISTICS_WRITING_APP : mkvmerge v8.6.1 ('Flying') 64bit _STATISTICS_WRITING_DATE_UT : 2016-10-07 00:43:58 _STATISTICS_TAGS : BPS DURATION NUMBER_OF_FRAMES NUMBER_OF_BYTES Video ID : 1 Format : HEVC Format/Info : High Efficiency Video Coding Format profile : Main@L4@Main Codec ID : V_MPEGH/ISO/HEVC Duration : 1h 34mn Bit rate : 3 095 Kbps Width : 1 920 pixels Height : 1 080 pixels Display aspect ratio : 16:9 Frame rate mode : Constant Frame rate : 23.976 fps Color space : YUV Chroma subsampling : 4:2:0 Bit depth : 8 bits Bits/(Pixel*Frame) : 0.062 Stream size : 2.04 GiB (60%) Writing library : x265 1.9:[Windows][GCC 4.9.0][64 bit] 8bit Encoding settings : wpp / ctu=64 / min-cu-size=8 / max-tu-size=32 / tu-intra-depth=1 / tu-inter-depth=1 / me=3 / subme=3 / merange=57 / rect / no-amp / max-merge=3 / temporal-mvp / no-early-skip / rdpenalty=0 / no-tskip / no-tskip-fast / strong-intra-smoothing / no-lossless / no-cu-lossless / no-constrained-intra / no-fast-intra / open-gop / no-temporal-layers / interlace=0 / keyint=240 / min-keyint=24 / scenecut=40 / rc-lookahead=25 / lookahead-slices=4 / bframes=4 / bframe-bias=0 / b-adapt=2 / ref=4 / limit-refs=3 / limit-modes / weightp / no-weightb / aq-mode=1 / qg-size=32 / aq-strength=1.00 / cbqpoffs=0 / crqpoffs=0 / rd=4 / psy-rd=2.00 / rdoq-level=2 / psy-rdoq=1.00 / signhide / deblock / sao / no-sao-non-deblock / b-pyramid / cutree / no-intra-refresh / rc=crf / crf=20.0 / qcomp=0.60 / qpmin=0 / qpmax=51 / qpstep=4 / ipratio=1.40 / pbratio=1.30 Default : Yes Forced : No Color range : Limited Color primaries : BT.709 Transfer characteristics : BT.709 Matrix coefficients : BT.709 DURATION : 01:34:32.751000000 NUMBER_OF_FRAMES : 136009 NUMBER_OF_BYTES : 2242148570 _STATISTICS_WRITING_APP : mkvmerge v8.6.1 ('Flying') 64bit _STATISTICS_WRITING_DATE_UT : 2016-10-07 00:43:58 _STATISTICS_TAGS : BPS DURATION NUMBER_OF_FRAMES NUMBER_OF_BYTES Audio #1 ID : 2 Format : AC-3 Format/Info : Audio Coding 3 Mode extension : CM (complete main) Format settings, Endianness : Big Codec ID : A_AC3 Duration : 1h 34mn Bit rate mode : Constant Bit rate : 448 Kbps Channel(s) : 6 channels Channel positions : Front: L C R, Side: L R, LFE Sampling rate : 48.0 KHz Compression mode : Lossy Delay relative to video : -83ms Stream size : 303 MiB (9%) Title : Español Latino AC3 5.1 [448 Kbps] Language : Spanish Default : Yes Forced : No Audio #2 ID : 3 Format : DTS Format/Info : Digital Theater Systems Format profile : ES Mode : 16 Format settings, Endianness : Big Codec ID : A_DTS Duration : 1h 34mn Bit rate mode : Constant Bit rate : 1 509 Kbps Channel(s) : 6 channels Channel positions : Front: L C R, Side: L R, LFE Sampling rate : 48.0 KHz Bit depth : 24 bits Compression mode : Lossy Delay relative to video : -83ms Stream size : 1 020 MiB (29%) Title : Inglés DTS 5.1 [1509 Kbps] Language : English Default : No Forced : No Text #1 ID : 4 Format : PGS Codec ID : S_HDMV/PGS Codec ID/Info : Picture based subtitle format used on BDs/HD-DVDs Title : Subtítulos Español Latino (PGS) Language : Spanish Default : No Forced : No Text #2 ID : 5 Format : UTF-8 Codec ID : S_TEXT/UTF8 Codec ID/Info : UTF-8 Plain Text Title : Subtítulos Español Latino - Forzados (SRT) Language : Spanish Default : No Forced : Yes Menu 00:00:00.000 : :Chapter 1 00:03:08.396 : :Chapter 2 00:05:23.656 : :Chapter 23 00:09:05.461 : :Chapter 3 00:09:06.170 : :Chapter 4 00:13:22.384 : :Chapter 5 00:18:05.834 : :Chapter 6 00:20:50.666 : :Chapter 7 00:23:10.389 : :Chapter 8 00:27:29.981 : :Chapter 9 00:30:16.064 : :Chapter 10 00:32:54.430 : :Chapter 11 00:36:13.671 : :Chapter 12 00:39:33.537 : :Chapter 13 00:42:58.784 : :Chapter 14 00:47:35.102 : :Chapter 15 00:51:11.818 : :Chapter 16 00:55:50.847 : :Chapter 17 01:01:09.540 : :Chapter 18 01:05:06.485 : :Chapter 19 01:09:39.383 : :Chapter 20 01:14:36.972 : :Chapter 21 01:17:41.615 : :Chapter 22 01:21:43.148 : :Chapter 23 01:24:46.581 : :Chapter 24

Capturas de la Pelicula

  • Captura de La Era De Hielo Choque De Mundos (2016) 1080p BluRay x265 HEVC DTS Dual Latino
  • Captura de La Era De Hielo Choque De Mundos (2016) 1080p BluRay x265 HEVC DTS Dual Latino
  • Captura de La Era De Hielo Choque De Mundos (2016) 1080p BluRay x265 HEVC DTS Dual Latino
  • Captura de La Era De Hielo Choque De Mundos (2016) 1080p BluRay x265 HEVC DTS Dual Latino
Lista de enlaces para usuarios donadores

Al donar para la pagina se obtiene acceso a una membresia para poder tener mas links de descargas.

  Enlaces Donadores
Enlaces para usuarios anonimos:

Si no tienes acceso a la membresia, igualmente puedes descargar desde nuestro sitio.

  Enlaces Publicos
Password: