Ver Trailer

MKV 1080p | x265 HEVC | Español Latino [DTS 5.1 BD + .SRT + PGS] - Inglés [DTS 5.1 BD] | 9.48GB

MediaInfo

General Complete name : King.Kong.2005.EXTENDED.1080p.BluRay.x265.HEVC.DTS.Dual.Latino-Papelillio.mkv Format : Matroska Format version : Version 4 / Version 2 File size : 9.48 GiB Duration : 3h 20mn Overall bit rate : 6 785 Kbps Encoded date : UTC 2016-03-28 04:37:32 Writing application : mkvmerge v7.9.0 ('Birds') 64bit Writing library : libebml v1.3.1 + libmatroska v1.4.2 Video ID : 1 Format : HEVC Format/Info : High Efficiency Video Coding Format profile : Main@L4@Main Codec ID : V_MPEGH/ISO/HEVC Duration : 3h 20mn Bit rate : 4 500 Kbps Width : 1 920 pixels Height : 1 080 pixels Display aspect ratio : 16:9 Frame rate mode : Constant Frame rate : 23.976 (24000/1001) fps Color space : YUV Chroma subsampling : 4:2:0 Bit depth : 8 bits Bits/(Pixel*Frame) : 0.091 Stream size : 6.29 GiB (66%) Title : Fuente Encodeo: BD50 - Papelillio Writing library : x265 1.9:[Windows][GCC 4.9.0][64 bit] 8bit Encoding settings : wpp / ctu=64 / min-cu-size=8 / max-tu-size=32 / tu-intra-depth=1 / tu-inter-depth=1 / me=3 / subme=3 / merange=57 / rect / no-amp / max-merge=3 / temporal-mvp / no-early-skip / rdpenalty=0 / no-tskip / no-tskip-fast / strong-intra-smoothing / no-lossless / no-cu-lossless / no-constrained-intra / no-fast-intra / open-gop / no-temporal-layers / interlace=0 / keyint=240 / min-keyint=24 / scenecut=40 / rc-lookahead=25 / lookahead-slices=4 / bframes=4 / bframe-bias=0 / b-adapt=2 / ref=4 / limit-refs=3 / limit-modes / weightp / no-weightb / aq-mode=1 / qg-size=32 / aq-strength=1.00 / cbqpoffs=0 / crqpoffs=0 / rd=4 / psy-rd=2.00 / rdoq-level=2 / psy-rdoq=1.00 / signhide / deblock / sao / no-sao-non-deblock / b-pyramid / cutree / no-intra-refresh / rc=crf / crf=20.0 / qcomp=0.60 / qpmin=0 / qpmax=51 / qpstep=4 / ipratio=1.40 / pbratio=1.30 Default : Yes Forced : No Color range : Limited Color primaries : BT.709 Transfer characteristics : BT.709 Matrix coefficients : BT.709 Audio #1 ID : 2 Format : DTS Format/Info : Digital Theater Systems Mode : 16 Format settings, Endianness : Big Codec ID : A_DTS Duration : 3h 20mn Bit rate mode : Constant Bit rate : 768 Kbps Channel(s) : 6 channels Channel positions : Front: L C R, Side: L R, LFE Sampling rate : 48.0 KHz Frame rate : 93.750 fps (512 spf) Bit depth : 24 bits Compression mode : Lossy Delay relative to video : -83ms Stream size : 1.07 GiB (11%) Title : Audio Español Latino DTS 5.1 @768Kbps - Papelillio Language : Spanish Default : Yes Forced : No Audio #2 ID : 3 Format : DTS Format/Info : Digital Theater Systems Mode : 16 Format settings, Endianness : Big Codec ID : A_DTS Duration : 3h 20mn Bit rate mode : Constant Bit rate : 1 509 Kbps Channel(s) : 6 channels Channel positions : Front: L C R, Side: L R, LFE Sampling rate : 48.0 KHz Frame rate : 93.750 fps (512 spf) Bit depth : 24 bits Compression mode : Lossy Delay relative to video : -83ms Stream size : 2.11 GiB (22%) Title : Audio Inglés DTS 5.1 @1509Kbps - Papelillio Language : English Default : No Forced : No Text #1 ID : 4 Format : UTF-8 Codec ID : S_TEXT/UTF8 Codec ID/Info : UTF-8 Plain Text Duration : 3h 16mn Bit rate : 0 bps Count of elements : 28 Stream size : 886 Bytes (0%) Title : Subtítulos Español Latino - Forzados (SRT) - Papelillio Language : Spanish Default : Yes Forced : No Text #2 ID : 5 Format : UTF-8 Codec ID : S_TEXT/UTF8 Codec ID/Info : UTF-8 Plain Text Duration : 3h 18mn Bit rate : 24 bps Count of elements : 1314 Stream size : 36.1 KiB (0%) Title : Subtítulos Español Latino (SRT) - Papelillio Language : Spanish Default : No Forced : No Text #3 ID : 6 Format : PGS Muxing mode : zlib Codec ID : S_HDMV/PGS Codec ID/Info : Picture based subtitle format used on BDs/HD-DVDs Duration : 3h 16mn Bit rate : 138 bps Count of elements : 85 Stream size : 199 KiB (0%) Title : Subtítulos Español Latino - Forzados (PGS) - Papelillio Language : Spanish Default : No Forced : No Text #4 ID : 7 Format : PGS Muxing mode : zlib Codec ID : S_HDMV/PGS Codec ID/Info : Picture based subtitle format used on BDs/HD-DVDs Duration : 3h 18mn Bit rate : 4 796 bps Count of elements : 2622 Stream size : 6.82 MiB (0%) Title : Subtítulos Español Latino (PGS) - Papelillio Language : Spanish Default : No Forced : No Menu 00:00:00.000 : :Chapter 1 00:03:02.891 : :Chapter 2 00:04:20.885 : :Chapter 3 00:06:44.028 : :Chapter 4 00:10:29.754 : :Chapter 5 00:12:33.294 : :Chapter 6 00:14:18.482 : :Chapter 7 00:17:40.976 : :Chapter 8 00:20:25.933 : :Chapter 9 00:24:13.368 : :Chapter 10 00:25:55.720 : :Chapter 11 00:26:13.446 : :Chapter 12 00:28:00.720 : :Chapter 13 00:30:29.619 : :Chapter 14 00:31:07.532 : :Chapter 15 00:33:07.443 : :Chapter 16 00:34:14.594 : :Chapter 17 00:36:55.963 : :Chapter 18 00:39:45.758 : :Chapter 19 00:41:07.590 : :Chapter 20 00:42:31.799 : :Chapter 21 00:43:45.956 : :Chapter 22 00:52:20.262 : :Chapter 23 00:55:50.013 : :Chapter 24 01:02:07.348 : :Chapter 25 01:07:32.882 : :Chapter 26 01:12:39.563 : :Chapter 27 01:14:14.742 : :Chapter 28 01:16:59.072 : :Chapter 29 01:20:23.568 : :Chapter 30 01:22:42.249 : :Chapter 31 01:29:20.605 : :Chapter 32 01:30:16.661 : :Chapter 33 01:32:09.899 : :Chapter 34 01:38:55.429 : :Chapter 35 01:44:44.194 : :Chapter 36 01:46:18.038 : :Chapter 37 01:50:02.095 : :Chapter 38 02:01:41.335 : :Chapter 39 02:09:08.741 : :Chapter 40 02:13:19.074 : :Chapter 41 02:15:51.560 : :Chapter 42 02:21:36.112 : :Chapter 43 02:30:16.590 : :Chapter 44 02:32:11.789 : :Chapter 45 02:34:02.232 : :Chapter 46 02:43:14.868 : :Chapter 47 02:47:50.643 : :Chapter 48 02:52:23.958 : :Chapter 49 02:54:05.351 : :Chapter 50 02:56:23.990 : :Chapter 51 03:03:57.568 : :Chapter 52 03:10:36.132 : :Chapter 53

Capturas de la Pelicula

  • Captura de King Kong (2005) Extendida 1080p x265 HEVC Latino – Inglés
  • Captura de King Kong (2005) Extendida 1080p x265 HEVC Latino – Inglés
  • Captura de King Kong (2005) Extendida 1080p x265 HEVC Latino – Inglés
  • Captura de King Kong (2005) Extendida 1080p x265 HEVC Latino – Inglés
Lista de enlaces para usuarios donadores

Al donar para la pagina se obtiene acceso a una membresia para poder tener mas links de descargas.

  Enlaces Donadores
Enlaces para usuarios anonimos:

Si no tienes acceso a la membresia, igualmente puedes descargar desde nuestro sitio.

  Enlaces Publicos
Password: