Ver Trailer

MKV 1080p | x265 HEVC | Español Latino [DTS 5.1 BD + .SRT + PGS] - Inglés [DTS 5.1 BD] | 4.13GB

MediaInfo

General Complete name : Sisters.2015.UNRATED.1080p.BluRay.x265.HEVC.DTS.Dual.Latino-Papelillio.mkv Format : Matroska Format version : Version 4 / Version 2 File size : 4.13 GiB Duration : 2h 2mn Overall bit rate : 4 826 Kbps Encoded date : UTC 2016-03-09 20:42:21 Writing application : mkvmerge v7.9.0 ('Birds') 64bit Writing library : libebml v1.3.1 + libmatroska v1.4.2 Video ID : 1 Format : HEVC Format/Info : High Efficiency Video Coding Format profile : Main@L4@Main Codec ID : V_MPEGH/ISO/HEVC Duration : 2h 2mn Bit rate : 2 530 Kbps Width : 1 920 pixels Height : 1 080 pixels Display aspect ratio : 16:9 Frame rate mode : Constant Frame rate : 23.976 (24000/1001) fps Color space : YUV Chroma subsampling : 4:2:0 Bit depth : 8 bits Bits/(Pixel*Frame) : 0.051 Stream size : 2.16 GiB (52%) Title : Fuente Encodeo: BD50 - Papelillio Writing library : x265 1.9:[Windows][GCC 4.9.0][64 bit] 8bit Encoding settings : wpp / ctu=64 / min-cu-size=8 / max-tu-size=32 / tu-intra-depth=1 / tu-inter-depth=1 / me=3 / subme=3 / merange=57 / rect / no-amp / max-merge=3 / temporal-mvp / no-early-skip / rdpenalty=0 / no-tskip / no-tskip-fast / strong-intra-smoothing / no-lossless / no-cu-lossless / no-constrained-intra / no-fast-intra / open-gop / no-temporal-layers / interlace=0 / keyint=240 / min-keyint=24 / scenecut=40 / rc-lookahead=25 / lookahead-slices=4 / bframes=4 / bframe-bias=0 / b-adapt=2 / ref=4 / limit-refs=3 / limit-modes / weightp / no-weightb / aq-mode=1 / qg-size=32 / aq-strength=1.00 / cbqpoffs=0 / crqpoffs=0 / rd=4 / psy-rd=2.00 / rdoq-level=2 / psy-rdoq=1.00 / signhide / deblock / sao / no-sao-non-deblock / b-pyramid / cutree / no-intra-refresh / rc=crf / crf=20.0 / qcomp=0.60 / qpmin=0 / qpmax=51 / qpstep=4 / ipratio=1.40 / pbratio=1.30 Default : Yes Forced : No Color range : Limited Color primaries : BT.709 Transfer characteristics : BT.709 Matrix coefficients : BT.709 Audio #1 ID : 2 Format : DTS Format/Info : Digital Theater Systems Mode : 16 Format settings, Endianness : Big Codec ID : A_DTS Duration : 2h 2mn Bit rate mode : Constant Bit rate : 768 Kbps Channel(s) : 6 channels Channel positions : Front: L C R, Side: L R, LFE Sampling rate : 48.0 KHz Frame rate : 93.750 fps (512 spf) Bit depth : 24 bits Compression mode : Lossy Delay relative to video : -83ms Stream size : 672 MiB (16%) Title : Audio Español Latino DTS 5.1 @768Kbps - Papelillio Language : Spanish Default : Yes Forced : No Audio #2 ID : 3 Format : DTS Format/Info : Digital Theater Systems Mode : 16 Format settings, Endianness : Big Codec ID : A_DTS Duration : 2h 2mn Bit rate mode : Constant Bit rate : 1 509 Kbps Channel(s) : 6 channels Channel positions : Front: L C R, Side: L R, LFE Sampling rate : 48.0 KHz Frame rate : 93.750 fps (512 spf) Bit depth : 24 bits Compression mode : Lossy Delay relative to video : -83ms Stream size : 1.29 GiB (31%) Title : Audio Inglés DTS 5.1 @1509Kbps - Papelillio Language : English Default : No Forced : No Text #1 ID : 4 Format : UTF-8 Codec ID : S_TEXT/UTF8 Codec ID/Info : UTF-8 Plain Text Duration : 1h 56mn Bit rate : 1 bps Count of elements : 36 Stream size : 946 Bytes (0%) Title : Subtítulos Español Latino - Forzados (SRT) - Papelillio Language : Spanish Default : Yes Forced : No Text #2 ID : 5 Format : UTF-8 Codec ID : S_TEXT/UTF8 Codec ID/Info : UTF-8 Plain Text Duration : 1h 57mn Bit rate : 85 bps Count of elements : 2408 Stream size : 73.2 KiB (0%) Title : Subtítulos Español Latino (SRT) - Papelillio Language : Spanish Default : No Forced : No Text #3 ID : 6 Format : PGS Muxing mode : zlib Codec ID : S_HDMV/PGS Codec ID/Info : Picture based subtitle format used on BDs/HD-DVDs Duration : 2h 1mn Bit rate : 238 bps Count of elements : 109 Stream size : 212 KiB (0%) Title : Subtítulos Español Latino - Forzados (PGS) - Papelillio Language : Spanish Default : No Forced : No Text #4 ID : 7 Format : PGS Muxing mode : zlib Codec ID : S_HDMV/PGS Codec ID/Info : Picture based subtitle format used on BDs/HD-DVDs Duration : 2h 1mn Bit rate : 15.6 Kbps Count of elements : 4815 Stream size : 13.6 MiB (0%) Title : Subtítulos Español Latino (PGS) - Papelillio Language : Spanish Default : No Forced : No Menu 00:00:00.000 : :Chapter 1 00:07:48.259 : :Chapter 2 00:13:55.626 : :Chapter 3 00:18:20.641 : :Chapter 4 00:23:44.798 : :Chapter 5 00:30:27.367 : :Chapter 6 00:34:51.923 : :Chapter 7 00:39:48.260 : :Chapter 8 00:45:41.697 : :Chapter 9 00:49:46.566 : :Chapter 10 00:55:36.207 : :Chapter 11 01:01:54.168 : :Chapter 12 01:08:39.990 : :Chapter 13 01:16:04.017 : :Chapter 14 01:22:09.424 : :Chapter 15 01:29:51.761 : :Chapter 16 01:35:52.788 : :Chapter 17 01:44:34.809 : :Chapter 18 01:50:32.792 : :Chapter 19 01:55:34.427 : :Chapter 20

Capturas de la Pelicula

  • Captura de Hermanas (2015) 1080p x265 HEVC Latino – Inglés
  • Captura de Hermanas (2015) 1080p x265 HEVC Latino – Inglés
  • Captura de Hermanas (2015) 1080p x265 HEVC Latino – Inglés
  • Captura de Hermanas (2015) 1080p x265 HEVC Latino – Inglés
Lista de enlaces para usuarios donadores

Al donar para la pagina se obtiene acceso a una membresia para poder tener mas links de descargas.

  Enlaces Donadores
Enlaces para usuarios anonimos:

Si no tienes acceso a la membresia, igualmente puedes descargar desde nuestro sitio.

  Enlaces Publicos
Password: