Ver Trailer

MKV 1080p | x265 HEVC | Español Latino [AC3 5.1 BD + .SRT + PGS] - Inglés [AC3 5.1 BD] | 6.41GB

MediaInfo

General Complete name : Hellboy.2004.1080p.BluRay.x265.HEVC.Dual.Latino-Papelillio.mkv Format : Matroska Format version : Version 4 / Version 2 File size : 6.41 GiB Duration : 2h 1mn Overall bit rate : 7 524 Kbps Encoded date : UTC 2016-02-06 19:30:41 Writing application : mkvmerge v7.9.0 ('Birds') 64bit Writing library : libebml v1.3.1 + libmatroska v1.4.2 Video ID : 1 Format : HEVC Format/Info : High Efficiency Video Coding Format profile : Main@L4@Main Codec ID : V_MPEGH/ISO/HEVC Duration : 2h 1mn Bit rate : 6 233 Kbps Width : 1 920 pixels Height : 1 080 pixels Display aspect ratio : 16:9 Frame rate mode : Constant Frame rate : 23.976 (24000/1001) fps Color space : YUV Chroma subsampling : 4:2:0 Bit depth : 8 bits Bits/(Pixel*Frame) : 0.125 Stream size : 5.31 GiB (83%) Title : Fuente Encodeo: BD50 - Papelillio Writing library : x265 1.8:[Windows][GCC 4.9.0][64 bit] 8bit Encoding settings : wpp / ctu=64 / min-cu-size=8 / max-tu-size=32 / tu-intra-depth=1 / tu-inter-depth=1 / me=3 / subme=3 / merange=57 / rect / no-amp / max-merge=3 / temporal-mvp / no-early-skip / rdpenalty=0 / no-tskip / no-tskip-fast / strong-intra-smoothing / no-lossless / no-cu-lossless / no-constrained-intra / no-fast-intra / open-gop / no-temporal-layers / interlace=0 / keyint=240 / min-keyint=24 / scenecut=40 / rc-lookahead=25 / lookahead-slices=0 / bframes=4 / bframe-bias=0 / b-adapt=2 / ref=3 / limit-refs=0 / weightp / no-weightb / aq-mode=1 / qg-size=32 / aq-strength=1.00 / cbqpoffs=0 / crqpoffs=0 / rd=4 / psy-rd=0.30 / rdoq-level=2 / psy-rdoq=1.00 / signhide / deblock / sao / no-sao-non-deblock / b-pyramid / cutree / rc=crf / crf=19.0 / qcomp=0.60 / qpmin=0 / qpmax=51 / qpstep=4 / ipratio=1.40 / pbratio=1.30 Default : Yes Forced : No Color range : Limited Color primaries : BT.709 Transfer characteristics : BT.709 Matrix coefficients : BT.709 Audio #1 ID : 2 Format : AC-3 Format/Info : Audio Coding 3 Mode extension : CM (complete main) Format settings, Endianness : Big Codec ID : A_AC3 Duration : 2h 1mn Bit rate mode : Constant Bit rate : 640 Kbps Channel(s) : 6 channels Channel positions : Front: L C R, Side: L R, LFE Sampling rate : 48.0 KHz Frame rate : 31.250 fps (1536 spf) Compression mode : Lossy Delay relative to video : -83ms Stream size : 558 MiB (9%) Title : Audio Español Latino AC3 5.1 @640Kbps - Papelillio Language : Spanish Default : Yes Forced : No Audio #2 ID : 3 Format : AC-3 Format/Info : Audio Coding 3 Mode extension : CM (complete main) Format settings, Endianness : Big Codec ID : A_AC3 Duration : 2h 1mn Bit rate mode : Constant Bit rate : 640 Kbps Channel(s) : 6 channels Channel positions : Front: L C R, Side: L R, LFE Sampling rate : 48.0 KHz Frame rate : 31.250 fps (1536 spf) Compression mode : Lossy Delay relative to video : -83ms Stream size : 558 MiB (9%) Title : Audio Inglés AC3 5.1 @640Kbps - Papelillio Language : English Default : No Forced : No Text #1 ID : 4 Format : UTF-8 Codec ID : S_TEXT/UTF8 Codec ID/Info : UTF-8 Plain Text Duration : 1h 30mn Bit rate : 1 bps Count of elements : 32 Stream size : 1 011 Bytes (0%) Title : Subtítulos Español Latino - Forzados (SRT) - Papelillio Language : Spanish Default : Yes Forced : No Text #2 ID : 5 Format : UTF-8 Codec ID : S_TEXT/UTF8 Codec ID/Info : UTF-8 Plain Text Duration : 1h 55mn Bit rate : 37 bps Count of elements : 1115 Stream size : 31.6 KiB (0%) Title : Subtítulos Español Latino (SRT) - Papelillio Language : Spanish Default : No Forced : No Text #3 ID : 6 Format : PGS Muxing mode : zlib Codec ID : S_HDMV/PGS Codec ID/Info : Picture based subtitle format used on BDs/HD-DVDs Duration : 1h 55mn Bit rate : 9 767 bps Count of elements : 2230 Stream size : 8.04 MiB (0%) Title : Subtítulos Español Latino (PGS) - Papelillio Language : Spanish Default : No Forced : No Menu 00:00:00.000 : :Chapter 1 00:06:42.652 : :Chapter 2 00:14:37.751 : :Chapter 3 00:22:50.118 : :Chapter 4 00:31:06.990 : :Chapter 5 00:40:09.115 : :Chapter 6 00:47:42.151 : :Chapter 7 00:53:32.876 : :Chapter 8 00:58:40.391 : :Chapter 9 01:03:57.750 : :Chapter 10 01:10:57.419 : :Chapter 11 01:18:40.048 : :Chapter 12 01:28:17.959 : :Chapter 13 01:34:50.226 : :Chapter 14 01:39:44.561 : :Chapter 15

Capturas de la Pelicula

  • Captura de Hellboy (2004) 1080p x265 HEVC Latino – Inglés
  • Captura de Hellboy (2004) 1080p x265 HEVC Latino – Inglés
  • Captura de Hellboy (2004) 1080p x265 HEVC Latino – Inglés
  • Captura de Hellboy (2004) 1080p x265 HEVC Latino – Inglés
Lista de enlaces para usuarios donadores

Al donar para la pagina se obtiene acceso a una membresia para poder tener mas links de descargas.

  Enlaces Donadores
Enlaces para usuarios anonimos:

Si no tienes acceso a la membresia, igualmente puedes descargar desde nuestro sitio.

  Enlaces Publicos
Password: