Ver Trailer

MKV 1080p | x265 HEVC | Español Latino AC3 2.0 [192 Kbps] + Inglés DTS 5.1 [1509 Kbps] | 3.88 GB

MediaInfo

Freddy vs. Jason (2003) 1080p BluRay x265 HEVC DTS Dual Latino.mkv Format : Matroska Format version : Version 4 / Version 2 File size : 3.88 GiB Duration : 1h 37mn Overall bit rate : 5 711 Kbps Encoded date : UTC 2016-10-15 17:44:37 Writing application : mkvmerge v8.6.1 ('Flying') 64bit Writing library : libebml v1.3.3 + libmatroska v1.4.4 DURATION : 01:36:45.842000000 NUMBER_OF_FRAMES : 1700 NUMBER_OF_BYTES : 16936011 _STATISTICS_WRITING_APP : mkvmerge v8.6.1 ('Flying') 64bit _STATISTICS_WRITING_DATE_UT : 2016-10-15 17:44:37 _STATISTICS_TAGS : BPS DURATION NUMBER_OF_FRAMES NUMBER_OF_BYTES Video ID : 1 Format : HEVC Format/Info : High Efficiency Video Coding Format profile : Main@L4@Main Codec ID : V_MPEGH/ISO/HEVC Duration : 1h 37mn Bit rate : 3 896 Kbps Width : 1 920 pixels Height : 1 080 pixels Display aspect ratio : 16:9 Frame rate mode : Constant Frame rate : 23.976 fps Color space : YUV Chroma subsampling : 4:2:0 Bit depth : 8 bits Bits/(Pixel*Frame) : 0.078 Stream size : 2.65 GiB (68%) Writing library : x265 1.9:[Windows][GCC 4.9.0][64 bit] 8bit Encoding settings : wpp / ctu=64 / min-cu-size=8 / max-tu-size=32 / tu-intra-depth=1 / tu-inter-depth=1 / me=3 / subme=3 / merange=57 / rect / no-amp / max-merge=3 / temporal-mvp / no-early-skip / rdpenalty=0 / no-tskip / no-tskip-fast / strong-intra-smoothing / no-lossless / no-cu-lossless / no-constrained-intra / no-fast-intra / open-gop / no-temporal-layers / interlace=0 / keyint=240 / min-keyint=24 / scenecut=40 / rc-lookahead=25 / lookahead-slices=4 / bframes=4 / bframe-bias=0 / b-adapt=2 / ref=4 / limit-refs=3 / limit-modes / weightp / no-weightb / aq-mode=1 / qg-size=32 / aq-strength=1.00 / cbqpoffs=0 / crqpoffs=0 / rd=4 / psy-rd=2.00 / rdoq-level=2 / psy-rdoq=1.00 / signhide / deblock / sao / no-sao-non-deblock / b-pyramid / cutree / no-intra-refresh / rc=crf / crf=20.0 / qcomp=0.60 / qpmin=0 / qpmax=51 / qpstep=4 / ipratio=1.40 / pbratio=1.30 Default : Yes Forced : No Color range : Limited Color primaries : BT.709 Transfer characteristics : BT.709 Matrix coefficients : BT.709 DURATION : 01:37:20.126000000 NUMBER_OF_FRAMES : 140023 NUMBER_OF_BYTES : 2908466142 _STATISTICS_WRITING_APP : mkvmerge v8.6.1 ('Flying') 64bit _STATISTICS_WRITING_DATE_UT : 2016-10-15 17:44:37 _STATISTICS_TAGS : BPS DURATION NUMBER_OF_FRAMES NUMBER_OF_BYTES Audio #1 ID : 2 Format : AC-3 Format/Info : Audio Coding 3 Format profile : Dolby Digital Mode extension : CM (complete main) Format settings, Endianness : Big Codec ID : A_AC3 Duration : 1h 37mn Bit rate mode : Constant Bit rate : 192 Kbps Channel(s) : 2 channels Channel positions : Front: L R Sampling rate : 48.0 KHz Compression mode : Lossy Delay relative to video : -83ms Stream size : 134 MiB (3%) Title : Español Latino AC3 2.0 [192 Kbps] Language : Spanish Default : Yes Forced : No Audio #2 ID : 3 Format : DTS Format/Info : Digital Theater Systems Format profile : ES Mode : 16 Format settings, Endianness : Big Codec ID : A_DTS Duration : 1h 37mn Bit rate mode : Constant Bit rate : 1 509 Kbps Channel(s) : 7 channels / 6 channels Channel positions : Front: L C R, Side: L R, Back: C, LFE / Front: L C R, Side: L R, LFE Sampling rate : 48.0 KHz Bit depth : 24 bits Compression mode : Lossy Delay relative to video : -83ms Stream size : 1.03 GiB (26%) Title : Inglés DTS 5.1 [1509 Kbps] Language : English Default : No Forced : No Text ID : 4 Format : PGS Codec ID : S_HDMV/PGS Codec ID/Info : Picture based subtitle format used on BDs/HD-DVDs Title : Subtítulos Español Latino [PGS] Language : Spanish Default : No Forced : No Menu 00:00:00.000 : :Chapter 1 00:02:56.259 : :Chapter 2 00:06:37.188 : :Chapter 3 00:14:42.131 : :Chapter 4 00:20:32.189 : :Chapter 5 00:23:56.768 : :Chapter 6 00:33:25.795 : :Chapter 7 00:43:58.886 : :Chapter 8 00:48:53.055 : :Chapter 9 00:52:14.840 : :Chapter 10 00:57:52.510 : :Chapter 11 01:04:04.340 : :Chapter 12 01:07:46.270 : :Chapter 13 01:17:09.750 : :Chapter 14 01:21:04.860 : :Chapter 15 01:26:43.698 : :Chapter 16 01:30:14.492 : :Chapter 17

Capturas de la Pelicula

  • Captura de Freddy vs. Jason (2003) 1080p BluRay x265 HEVC DTS Dual Latino
  • Captura de Freddy vs. Jason (2003) 1080p BluRay x265 HEVC DTS Dual Latino
  • Captura de Freddy vs. Jason (2003) 1080p BluRay x265 HEVC DTS Dual Latino
  • Captura de Freddy vs. Jason (2003) 1080p BluRay x265 HEVC DTS Dual Latino
Lista de enlaces para usuarios donadores

Al donar para la pagina se obtiene acceso a una membresia para poder tener mas links de descargas.

  Enlaces Donadores
Enlaces para usuarios anonimos:

Si no tienes acceso a la membresia, igualmente puedes descargar desde nuestro sitio.

  Enlaces Publicos
Password: