Ver Trailer

MKV 1080p | x265 HEVC | Español Latino [AC3 2.0 BD + .SRT + PGS] - Inglés [AC3 5.1 BD] | 4.29GB

MediaInfo

General Complete name : The.Last.Samurai.2003.1080p.BluRay.x265.HEVC.Dual.Latino-Papelillio.mkv Format : Matroska Format version : Version 4 / Version 2 File size : 4.29 GiB Duration : 2h 34mn Overall bit rate : 3 982 Kbps Encoded date : UTC 2016-04-03 03:38:24 Writing application : mkvmerge v7.9.0 ('Birds') 64bit Writing library : libebml v1.3.1 + libmatroska v1.4.2 Video ID : 1 Format : HEVC Format/Info : High Efficiency Video Coding Format profile : Main@L4@Main Codec ID : V_MPEGH/ISO/HEVC Duration : 2h 34mn Bit rate : 3 138 Kbps Width : 1 920 pixels Height : 1 080 pixels Display aspect ratio : 16:9 Frame rate mode : Constant Frame rate : 23.976 (24000/1001) fps Color space : YUV Chroma subsampling : 4:2:0 Bit depth : 8 bits Bits/(Pixel*Frame) : 0.063 Stream size : 3.38 GiB (79%) Title : Fuente Encodeo: BD50 - Papelillio Writing library : x265 1.9:[Windows][GCC 4.9.0][64 bit] 8bit Encoding settings : wpp / ctu=64 / min-cu-size=8 / max-tu-size=32 / tu-intra-depth=1 / tu-inter-depth=1 / me=3 / subme=3 / merange=57 / rect / no-amp / max-merge=3 / temporal-mvp / no-early-skip / rdpenalty=0 / no-tskip / no-tskip-fast / strong-intra-smoothing / no-lossless / no-cu-lossless / no-constrained-intra / no-fast-intra / open-gop / no-temporal-layers / interlace=0 / keyint=240 / min-keyint=24 / scenecut=40 / rc-lookahead=25 / lookahead-slices=4 / bframes=4 / bframe-bias=0 / b-adapt=2 / ref=4 / limit-refs=3 / limit-modes / weightp / no-weightb / aq-mode=1 / qg-size=32 / aq-strength=1.00 / cbqpoffs=0 / crqpoffs=0 / rd=4 / psy-rd=2.00 / rdoq-level=2 / psy-rdoq=1.00 / signhide / deblock / sao / no-sao-non-deblock / b-pyramid / cutree / no-intra-refresh / rc=crf / crf=20.0 / qcomp=0.60 / qpmin=0 / qpmax=51 / qpstep=4 / ipratio=1.40 / pbratio=1.30 Default : Yes Forced : No Color range : Limited Color primaries : BT.709 Transfer characteristics : BT.709 Matrix coefficients : BT.709 Audio #1 ID : 2 Format : AC-3 Format/Info : Audio Coding 3 Format profile : Dolby Digital Mode extension : CM (complete main) Format settings, Endianness : Big Codec ID : A_AC3 Duration : 2h 34mn Bit rate mode : Constant Bit rate : 192 Kbps Channel(s) : 2 channels Channel positions : Front: L R Sampling rate : 48.0 KHz Frame rate : 31.250 fps (1536 spf) Compression mode : Lossy Delay relative to video : -83ms Stream size : 212 MiB (5%) Title : Audio Español Latino AC3 2.0 @192Kbps - Papelillio Language : Spanish Default : Yes Forced : No Audio #2 ID : 3 Format : AC-3 Format/Info : Audio Coding 3 Mode extension : CM (complete main) Format settings, Endianness : Big Codec ID : A_AC3 Duration : 2h 34mn Bit rate mode : Constant Bit rate : 640 Kbps Channel(s) : 6 channels Channel positions : Front: L C R, Side: L R, LFE Sampling rate : 48.0 KHz Frame rate : 31.250 fps (1536 spf) Compression mode : Lossy Delay relative to video : -83ms Stream size : 706 MiB (16%) Title : Audio Inglés AC3 5.1 @640Kbps - Papelillio Language : English Default : No Forced : No Text #1 ID : 4 Format : UTF-8 Codec ID : S_TEXT/UTF8 Codec ID/Info : UTF-8 Plain Text Duration : 2h 26mn Bit rate : 5 bps Count of elements : 195 Stream size : 5.59 KiB (0%) Title : Subtítulos Español Latino - Forzados (SRT) - Papelillio Language : Spanish Default : Yes Forced : No Text #2 ID : 5 Format : UTF-8 Codec ID : S_TEXT/UTF8 Codec ID/Info : UTF-8 Plain Text Duration : 2h 33mn Bit rate : 29 bps Count of elements : 959 Stream size : 33.0 KiB (0%) Title : Subtítulos Español Latino (SRT) - Papelillio Language : Spanish Default : No Forced : No Text #3 ID : 6 Format : PGS Muxing mode : zlib Codec ID : S_HDMV/PGS Codec ID/Info : Picture based subtitle format used on BDs/HD-DVDs Duration : 2h 26mn Bit rate : 1 604 bps Count of elements : 389 Stream size : 1.68 MiB (0%) Title : Subtítulos Español Latino - Forzados (PGS) - Papelillio Language : Spanish Default : No Forced : No Text #4 ID : 7 Format : PGS Muxing mode : zlib Codec ID : S_HDMV/PGS Codec ID/Info : Picture based subtitle format used on BDs/HD-DVDs Duration : 2h 33mn Bit rate : 8 424 bps Count of elements : 1887 Stream size : 9.26 MiB (0%) Title : Subtítulos Español Latino (PGS) - Papelillio Language : Spanish Default : No Forced : No Menu 00:00:00.000 : :Chapter 1 00:01:52.153 : :Chapter 2 00:05:38.713 : :Chapter 3 00:09:58.014 : :Chapter 4 00:13:13.542 : :Chapter 5 00:15:24.506 : :Chapter 6 00:20:06.455 : :Chapter 7 00:22:54.790 : :Chapter 8 00:25:39.579 : :Chapter 9 00:31:13.037 : :Chapter 10 00:37:00.551 : :Chapter 11 00:41:00.791 : :Chapter 12 00:44:11.398 : :Chapter 13 00:49:36.181 : :Chapter 14 00:52:40.740 : :Chapter 15 00:56:48.238 : :Chapter 16 01:00:04.642 : :Chapter 17 01:03:24.967 : :Chapter 18 01:06:59.056 : :Chapter 19 01:11:42.881 : :Chapter 20 01:14:40.309 : :Chapter 21 01:18:55.313 : :Chapter 22 01:21:22.043 : :Chapter 23 01:24:20.805 : :Chapter 24 01:26:39.527 : :Chapter 25 01:30:28.256 : :Chapter 26 01:34:01.636 : :Chapter 27 01:37:16.330 : :Chapter 28 01:41:46.350 : :Chapter 29 01:44:55.706 : :Chapter 30 01:48:06.396 : :Chapter 31 01:52:25.989 : :Chapter 32 01:55:24.000 : :Chapter 33 02:00:03.613 : :Chapter 34 02:06:24.493 : :Chapter 35 02:08:21.443 : :Chapter 36 02:10:46.421 : :Chapter 37 02:13:06.478 : :Chapter 38 02:16:36.938 : :Chapter 39 02:22:57.569 : :Chapter 40 02:24:31.079 : :Chapter 41

Capturas de la Pelicula

  • Captura de El Último Samurái (2003) 1080p x265 HEVC Latino – Inglés
  • Captura de El Último Samurái (2003) 1080p x265 HEVC Latino – Inglés
  • Captura de El Último Samurái (2003) 1080p x265 HEVC Latino – Inglés
  • Captura de El Último Samurái (2003) 1080p x265 HEVC Latino – Inglés
Lista de enlaces para usuarios donadores

Al donar para la pagina se obtiene acceso a una membresia para poder tener mas links de descargas.

  Enlaces Donadores
Enlaces para usuarios anonimos:

Si no tienes acceso a la membresia, igualmente puedes descargar desde nuestro sitio.

  Enlaces Publicos
Password: