Ver Trailer

El señor de los anillos: Las dos torres (2016) Latino – Ingles 1080p x265

MediaInfo

General Complete name : E:\The Two Towersx265.ADDKiQ.mkv Format : Matroska Format version : Version 4 / Version 2 File size : 7.90 GiB Duration : 2h 59mn Overall bit rate : 6 305 Kbps Encoded date : UTC 2016-07-25T05:02:26Z Writing application : mkvmerge v9.2.0 ('Photograph') 32bit Writing library : Lavf55.12.0 DURATION : 02:58:02.358000000 NUMBER_OF_FRAMES : 45 NUMBER_OF_BYTES : 1166 _STATISTICS_WRITING_APP : mkvmerge v9.2.0 ('Photograph') 32bit _STATISTICS_WRITING_DATE_UTC : 2016-07-26 01:26:35 _STATISTICS_TAGS : BPS DURATION NUMBER_OF_FRAMES NUMBER_OF_BYTES Video ID : 1 Format : HEVC Format/Info : High Efficiency Video Coding Format profile : Main@L4@Main Codec ID : V_MPEGH/ISO/HEVC Bit rate : 4 031 Kbps Width : 1 920 pixels Height : 1 080 pixels Display aspect ratio : 16:9 Frame rate mode : Variable Original frame rate : 23.976 fps Color space : YUV Chroma subsampling : 4:2:0 Bit depth : 8 bits Writing library : x265 1.9:[Windows][GCC 4.9.0][64 bit] 8bit Encoding settings : wpp / ctu=64 / min-cu-size=8 / max-tu-size=32 / tu-intra-depth=1 / tu-inter-depth=1 / me=3 / subme=3 / merange=57 / rect / no-amp / max-merge=3 / temporal-mvp / no-early-skip / rdpenalty=0 / no-tskip / no-tskip-fast / strong-intra-smoothing / no-lossless / no-cu-lossless / no-constrained-intra / no-fast-intra / open-gop / no-temporal-layers / interlace=0 / keyint=240 / min-keyint=24 / scenecut=40 / rc-lookahead=25 / lookahead-slices=4 / bframes=4 / bframe-bias=0 / b-adapt=2 / ref=4 / limit-refs=3 / limit-modes / weightp / no-weightb / aq-mode=1 / qg-size=32 / aq-strength=1.00 / cbqpoffs=0 / crqpoffs=0 / rd=4 / psy-rd=2.00 / rdoq-level=2 / psy-rdoq=1.00 / signhide / deblock / sao / no-sao-non-deblock / b-pyramid / cutree / no-intra-refresh / rc=crf / crf=20.0 / qcomp=0.60 / qpmin=0 / qpmax=51 / qpstep=4 / ipratio=1.40 / pbratio=1.30 Default : Yes Forced : No Color range : Limited Color primaries : BT.709 Transfer characteristics : BT.709 Matrix coefficients : BT.709 DURATION : 02:59:24.771000000 NUMBER_OF_FRAMES : 258096 NUMBER_OF_BYTES : 5565421196 _STATISTICS_WRITING_APP : mkvmerge v9.2.0 ('Photograph') 32bit _STATISTICS_WRITING_DATE_UTC : 2016-07-26 01:26:35 _STATISTICS_TAGS : BPS DURATION NUMBER_OF_FRAMES NUMBER_OF_BYTES Audio #1 ID : 2 Format : AC-3 Format/Info : Audio Coding 3 Mode extension : CM (complete main) Format settings, Endianness : Big Codec ID : A_AC3 Duration : 2h 59mn Bit rate mode : Constant Bit rate : 640 Kbps Channel(s) : 6 channels Channel positions : Front: L C R, Side: L R, LFE Sampling rate : 48.0 KHz Compression mode : Lossy Delay relative to video : -83ms Stream size : 821 MiB (10%) Title : Latino Default : No Forced : Yes DURATION : 02:59:25.750000000 NUMBER_OF_FRAMES : 1009289 NUMBER_OF_BYTES : 2030689468 _STATISTICS_WRITING_APP : mkvmerge v9.2.0 ('Photograph') 32bit _STATISTICS_WRITING_DATE_UTC : 2016-07-26 01:26:35 _STATISTICS_TAGS : BPS DURATION NUMBER_OF_FRAMES NUMBER_OF_BYTES Audio #2 ID : 3 Format : DTS Format/Info : Digital Theater Systems Format profile : ES Mode : 16 Format settings, Endianness : Big Codec ID : A_DTS Duration : 2h 59mn Bit rate mode : Constant Bit rate : 1 509 Kbps Channel(s) : 6 channels Channel positions : Front: L C R, Side: L R, LFE Sampling rate : 48.0 KHz Bit depth : 24 bits Compression mode : Lossy Stream size : 1.89 GiB (24%) Title : Surround Language : English Default : Yes Forced : No DURATION : 02:58:01.171000000 NUMBER_OF_FRAMES : 3060 NUMBER_OF_BYTES : 24302822 _STATISTICS_WRITING_APP : mkvmerge v9.2.0 ('Photograph') 32bit _STATISTICS_WRITING_DATE_UTC : 2016-07-26 01:26:35 _STATISTICS_TAGS : BPS DURATION NUMBER_OF_FRAMES NUMBER_OF_BYTES Text #1 ID : 4 Format : UTF-8 Codec ID : S_TEXT/UTF8 Codec ID/Info : UTF-8 Plain Text Title : Subs Español Default : Yes Forced : No Text #2 ID : 5 Format : UTF-8 Codec ID : S_TEXT/UTF8 Codec ID/Info : UTF-8 Plain Text Title : Forzados Default : No Forced : Yes Text #3 ID : 6 Format : PGS Codec ID : S_HDMV/PGS Codec ID/Info : Picture based subtitle format used on BDs/HD-DVDs Language : Spanish Default : No Forced : No Menu 00:00:00.000 : :Chapter 1 00:04:08.807 : :Chapter 2 00:11:32.250 : :Chapter 3 00:12:17.795 : :Chapter 4 00:14:27.300 : :Chapter 5 00:17:30.650 : :Chapter 6 00:20:18.692 : :Chapter 7 00:21:12.830 : :Chapter 8 00:24:11.175 : :Chapter 9 00:28:19.131 : :Chapter 10 00:30:50.866 : :Chapter 11 00:34:19.783 : :Chapter 12 00:41:18.701 : :Chapter 13 00:46:55.371 : :Chapter 14 00:47:35.536 : :Chapter 15 00:52:53.228 : :Chapter 16 01:04:21.749 : :Chapter 17 01:06:14.529 : :Chapter 18 01:09:25.303 : :Chapter 19 01:10:51.347 : :Chapter 20 01:11:55.953 : :Chapter 21 01:13:38.597 : :Chapter 22 01:16:09.081 : :Chapter 23 01:20:36.098 : :Chapter 24 01:21:32.487 : :Chapter 25 01:26:01.506 : :Chapter 26 01:32:39.362 : :Chapter 27 01:35:06.009 : :Chapter 28 01:37:42.498 : :Chapter 29 01:39:22.139 : :Chapter 30 01:43:02.818 : :Chapter 31 01:45:28.797 : :Chapter 32 01:48:24.515 : :Chapter 33 01:55:44.913 : :Chapter 34 02:01:18.162 : :Chapter 35 02:02:38.034 : :Chapter 36 02:04:36.277 : :Chapter 37 02:06:21.007 : :Chapter 38 02:09:53.427 : :Chapter 39 02:16:09.386 : :Chapter 40 02:17:48.735 : :Chapter 41 02:21:13.565 : :Chapter 42 02:22:58.712 : :Chapter 43 02:28:55.652 : :Chapter 44 02:30:20.445 : :Chapter 45 02:30:55.188 : :Chapter 46 02:33:11.407 : :Chapter 47 02:35:43.392 : :Chapter 48 02:40:21.837 : :Chapter 49 02:42:50.027 : :Chapter 50 02:47:36.354 : :Chapter 51 02:49:16.037 : :Chapter 52 02:51:42.559 : :Chapter 53

Capturas de la Pelicula

  • Captura de El señor de los anillos: Las dos torres (2002) Latino – Ingles 1080p x265
  • Captura de El señor de los anillos: Las dos torres (2002) Latino – Ingles 1080p x265
  • Captura de El señor de los anillos: Las dos torres (2002) Latino – Ingles 1080p x265
  • Captura de El señor de los anillos: Las dos torres (2002) Latino – Ingles 1080p x265
Lista de enlaces para usuarios donadores

Al donar para la pagina se obtiene acceso a una membresia para poder tener mas links de descargas.

  Enlaces Donadores
Enlaces para usuarios anonimos:

Si no tienes acceso a la membresia, igualmente puedes descargar desde nuestro sitio.

  Enlaces Publicos
Password: