Ver Trailer

MKV 1080p | x265 HEVC | Español Latino [AC3 5.1 BD + .SRT + PGS] - Inglés [DTS 5.1 BD] | 4.48GB

MediaInfo

General Complete name : Rise.of.the.Planet.of.the.Apes.2011.1080p.BluRay.x265.HEVC.DTS.Dual.Latino-Papelillio.mkv Format : Matroska Format version : Version 4 / Version 2 File size : 4.48 GiB Duration : 1h 44mn Overall bit rate : 6 112 Kbps Encoded date : UTC 2016-02-07 05:26:52 Writing application : mkvmerge v7.9.0 ('Birds') 64bit Writing library : libebml v1.3.1 + libmatroska v1.4.2 Video ID : 1 Format : HEVC Format/Info : High Efficiency Video Coding Format profile : Main@L4@Main Codec ID : V_MPEGH/ISO/HEVC Duration : 1h 44mn Bit rate : 4 147 Kbps Width : 1 920 pixels Height : 1 080 pixels Display aspect ratio : 16:9 Frame rate mode : Constant Frame rate : 23.976 (24000/1001) fps Color space : YUV Chroma subsampling : 4:2:0 Bit depth : 8 bits Bits/(Pixel*Frame) : 0.083 Stream size : 3.04 GiB (68%) Title : Fuente Encodeo: BD50 - Papelillio Writing library : x265 1.8:[Windows][GCC 4.9.0][64 bit] 8bit Encoding settings : wpp / ctu=64 / min-cu-size=8 / max-tu-size=32 / tu-intra-depth=1 / tu-inter-depth=1 / me=3 / subme=3 / merange=57 / rect / no-amp / max-merge=3 / temporal-mvp / no-early-skip / rdpenalty=0 / no-tskip / no-tskip-fast / strong-intra-smoothing / no-lossless / no-cu-lossless / no-constrained-intra / no-fast-intra / open-gop / no-temporal-layers / interlace=0 / keyint=240 / min-keyint=24 / scenecut=40 / rc-lookahead=25 / lookahead-slices=0 / bframes=4 / bframe-bias=0 / b-adapt=2 / ref=3 / limit-refs=0 / weightp / no-weightb / aq-mode=1 / qg-size=32 / aq-strength=1.00 / cbqpoffs=0 / crqpoffs=0 / rd=4 / psy-rd=0.30 / rdoq-level=2 / psy-rdoq=1.00 / signhide / deblock / sao / no-sao-non-deblock / b-pyramid / cutree / rc=crf / crf=19.0 / qcomp=0.60 / qpmin=0 / qpmax=51 / qpstep=4 / ipratio=1.40 / pbratio=1.30 Default : Yes Forced : No Color range : Limited Color primaries : BT.709 Transfer characteristics : BT.709 Matrix coefficients : BT.709 Audio #1 ID : 2 Format : AC-3 Format/Info : Audio Coding 3 Mode extension : CM (complete main) Format settings, Endianness : Big Codec ID : A_AC3 Duration : 1h 44mn Bit rate mode : Constant Bit rate : 448 Kbps Channel(s) : 6 channels Channel positions : Front: L C R, Side: L R, LFE Sampling rate : 48.0 KHz Frame rate : 31.250 fps (1536 spf) Compression mode : Lossy Delay relative to video : -83ms Stream size : 336 MiB (7%) Title : Audio Español Latino AC3 5.1 @448Kbps - Papelillio Language : Spanish Default : Yes Forced : No Audio #2 ID : 3 Format : DTS Format/Info : Digital Theater Systems Mode : 16 Format settings, Endianness : Big Codec ID : A_DTS Duration : 1h 44mn Bit rate mode : Constant Bit rate : 1 509 Kbps Channel(s) : 6 channels Channel positions : Front: L C R, Side: L R, LFE Sampling rate : 48.0 KHz Frame rate : 93.750 fps (512 spf) Bit depth : 24 bits Compression mode : Lossy Delay relative to video : -83ms Stream size : 1.11 GiB (25%) Title : Audio Inglés DTS 5.1 @1509Kbps - Papelillio Language : English Default : No Forced : No Text #1 ID : 4 Format : UTF-8 Codec ID : S_TEXT/UTF8 Codec ID/Info : UTF-8 Plain Text Duration : 1h 10mn Bit rate : 0 bps Count of elements : 12 Stream size : 283 Bytes (0%) Title : Subtítulos Español Latino - Forzados (SRT) - Papelillio Language : Spanish Default : Yes Forced : No Text #2 ID : 5 Format : UTF-8 Codec ID : S_TEXT/UTF8 Codec ID/Info : UTF-8 Plain Text Duration : 1h 36mn Bit rate : 35 bps Count of elements : 811 Stream size : 24.9 KiB (0%) Title : Subtítulos Español Latino (SRT) - Papelillio Language : Spanish Default : No Forced : No Text #3 ID : 6 Format : PGS Muxing mode : zlib Codec ID : S_HDMV/PGS Codec ID/Info : Picture based subtitle format used on BDs/HD-DVDs Duration : 1h 43mn Bit rate : 5 919 bps Count of elements : 1624 Stream size : 4.40 MiB (0%) Title : Subtítulos Español Latino (PGS) - Papelillio Language : Spanish Default : No Forced : No Menu 00:00:00.000 : :Chapter 1 00:05:24.490 : :Chapter 2 00:09:18.057 : :Chapter 3 00:14:19.150 : :Chapter 4 00:18:07.628 : :Chapter 5 00:20:03.869 : :Chapter 6 00:22:38.231 : :Chapter 7 00:25:17.098 : :Chapter 8 00:29:42.739 : :Chapter 9 00:33:38.349 : :Chapter 10 00:38:29.181 : :Chapter 11 00:41:12.678 : :Chapter 12 00:45:19.091 : :Chapter 13 00:48:50.260 : :Chapter 14 00:52:56.715 : :Chapter 15 00:57:30.363 : :Chapter 16 00:59:26.813 : :Chapter 17 01:01:30.228 : :Chapter 18 01:05:03.691 : :Chapter 19 01:06:20.351 : :Chapter 20 01:09:35.045 : :Chapter 21 01:11:15.771 : :Chapter 22 01:15:44.206 : :Chapter 23 01:18:29.287 : :Chapter 24 01:23:09.359 : :Chapter 25 01:27:50.473 : :Chapter 26 01:33:00.449 : :Chapter 27 01:37:09.031 : :Chapter 28

Capturas de la Pelicula

  • Captura de El planeta de los simios: (R)Evolución (2011) 1080p x265 HEVC Latino – Inglés
  • Captura de El planeta de los simios: (R)Evolución (2011) 1080p x265 HEVC Latino – Inglés
  • Captura de El planeta de los simios: (R)Evolución (2011) 1080p x265 HEVC Latino – Inglés
  • Captura de El planeta de los simios: (R)Evolución (2011) 1080p x265 HEVC Latino – Inglés
Lista de enlaces para usuarios donadores

Al donar para la pagina se obtiene acceso a una membresia para poder tener mas links de descargas.

  Enlaces Donadores
Enlaces para usuarios anonimos:

Si no tienes acceso a la membresia, igualmente puedes descargar desde nuestro sitio.

  Enlaces Publicos
Password: