Ver Trailer

MKV 1080p | x265 HEVC | Español Latino [AC3 5.1 BD + .SRT + PGS] - Inglés [DTS 5.1 BD] | 4.68GB

MediaInfo

General Complete name : Dawn.of.the.Planet.of.the.Apes.2014.1080p.BluRay.x265.HEVC.DTS.Dual.Latino-Papelillio.mkv Format : Matroska Format version : Version 4 / Version 2 File size : 4.68 GiB Duration : 2h 10mn Overall bit rate : 5 134 Kbps Encoded date : UTC 2016-02-07 14:55:41 Writing application : mkvmerge v7.9.0 ('Birds') 64bit Writing library : libebml v1.3.1 + libmatroska v1.4.2 Video ID : 1 Format : HEVC Format/Info : High Efficiency Video Coding Format profile : Main@L4@Main Codec ID : V_MPEGH/ISO/HEVC Duration : 2h 10mn Bit rate : 3 170 Kbps Width : 1 920 pixels Height : 1 080 pixels Display aspect ratio : 16:9 Frame rate mode : Constant Frame rate : 23.976 (24000/1001) fps Color space : YUV Chroma subsampling : 4:2:0 Bit depth : 8 bits Bits/(Pixel*Frame) : 0.064 Stream size : 2.89 GiB (62%) Title : Fuente Encodeo: BD50 - Papelillio Writing library : x265 1.8:[Windows][GCC 4.9.0][64 bit] 8bit Encoding settings : wpp / ctu=64 / min-cu-size=8 / max-tu-size=32 / tu-intra-depth=1 / tu-inter-depth=1 / me=3 / subme=3 / merange=57 / rect / no-amp / max-merge=3 / temporal-mvp / no-early-skip / rdpenalty=0 / no-tskip / no-tskip-fast / strong-intra-smoothing / no-lossless / no-cu-lossless / no-constrained-intra / no-fast-intra / open-gop / no-temporal-layers / interlace=0 / keyint=240 / min-keyint=24 / scenecut=40 / rc-lookahead=25 / lookahead-slices=0 / bframes=4 / bframe-bias=0 / b-adapt=2 / ref=3 / limit-refs=0 / weightp / no-weightb / aq-mode=1 / qg-size=32 / aq-strength=1.00 / cbqpoffs=0 / crqpoffs=0 / rd=4 / psy-rd=0.30 / rdoq-level=2 / psy-rdoq=1.00 / signhide / deblock / sao / no-sao-non-deblock / b-pyramid / cutree / rc=crf / crf=19.0 / qcomp=0.60 / qpmin=0 / qpmax=51 / qpstep=4 / ipratio=1.40 / pbratio=1.30 Default : Yes Forced : No Color range : Limited Color primaries : BT.709 Transfer characteristics : BT.709 Matrix coefficients : BT.709 Audio #1 ID : 2 Format : AC-3 Format/Info : Audio Coding 3 Mode extension : CM (complete main) Format settings, Endianness : Big Codec ID : A_AC3 Duration : 2h 10mn Bit rate mode : Constant Bit rate : 448 Kbps Channel(s) : 6 channels Channel positions : Front: L C R, Side: L R, LFE Sampling rate : 48.0 KHz Frame rate : 31.250 fps (1536 spf) Compression mode : Lossy Delay relative to video : -83ms Stream size : 418 MiB (9%) Title : Audio Español Latino AC3 5.1 @448Kbps - Papelillio Language : Spanish Default : Yes Forced : No Audio #2 ID : 3 Format : DTS Format/Info : Digital Theater Systems Format profile : ES Matrix / Core Mode : 16 Format settings, Endianness : Big Codec ID : A_DTS Duration : 2h 10mn Bit rate mode : Constant Bit rate : 1 509 Kbps Channel(s) : 7 channels / 6 channels Channel positions : Front: L C R, Side: L R, Back: C, LFE / Front: L C R, Side: L R, LFE Sampling rate : 48.0 KHz Frame rate : 93.750 fps (512 spf) Bit depth : 24 bits Compression mode : Lossy Delay relative to video : -83ms Stream size : 1.37 GiB (29%) Title : Audio Inglés DTS 5.1 @1509Kbps - Papelillio Language : English Default : No Forced : No Text #1 ID : 4 Format : UTF-8 Codec ID : S_TEXT/UTF8 Codec ID/Info : UTF-8 Plain Text Duration : 2h 6mn Bit rate : 3 bps Count of elements : 131 Stream size : 3.21 KiB (0%) Title : Subtítulos Español Latino - Forzados (SRT) - Papelillio Language : Spanish Default : Yes Forced : No Text #2 ID : 5 Format : UTF-8 Codec ID : S_TEXT/UTF8 Codec ID/Info : UTF-8 Plain Text Duration : 2h 2mn Bit rate : 24 bps Count of elements : 857 Stream size : 21.8 KiB (0%) Title : Subtítulos Español Latino (SRT) - Papelillio Language : Spanish Default : No Forced : No Text #3 ID : 6 Format : PGS Muxing mode : zlib Codec ID : S_HDMV/PGS Codec ID/Info : Picture based subtitle format used on BDs/HD-DVDs Duration : 2h 9mn Bit rate : 4 500 bps Count of elements : 1714 Stream size : 4.16 MiB (0%) Title : Subtítulos Español Latino (PGS) - Papelillio Language : Spanish Default : No Forced : No Menu 00:00:00.000 : :Chapter 1 00:03:21.242 : :Chapter 2 00:07:34.996 : :Chapter 3 00:12:36.630 : :Chapter 4 00:16:23.649 : :Chapter 5 00:18:47.126 : :Chapter 6 00:21:52.561 : :Chapter 7 00:25:26.775 : :Chapter 8 00:29:45.950 : :Chapter 9 00:31:50.700 : :Chapter 10 00:36:43.826 : :Chapter 11 00:39:07.637 : :Chapter 12 00:40:57.246 : :Chapter 13 00:44:12.316 : :Chapter 14 00:48:10.762 : :Chapter 15 00:50:31.611 : :Chapter 16 00:53:48.099 : :Chapter 17 00:57:25.400 : :Chapter 18 01:01:18.549 : :Chapter 19 01:02:35.460 : :Chapter 20 01:04:24.152 : :Chapter 21 01:06:21.811 : :Chapter 22 01:09:31.417 : :Chapter 23 01:13:57.057 : :Chapter 24 01:17:18.008 : :Chapter 25 01:20:53.473 : :Chapter 26 01:23:28.837 : :Chapter 27 01:26:09.080 : :Chapter 28 01:28:19.335 : :Chapter 29 01:33:24.473 : :Chapter 30 01:35:53.205 : :Chapter 31 01:38:38.704 : :Chapter 32 01:40:42.619 : :Chapter 33 01:44:06.949 : :Chapter 34 01:46:04.608 : :Chapter 35 01:47:54.551 : :Chapter 36 01:52:13.059 : :Chapter 37 01:56:27.563 : :Chapter 38 02:00:31.098 : :Chapter 39 02:01:34.620 : :Chapter 40

Capturas de la Pelicula

  • Captura de El planeta de los simios: Confrontación (2014) 1080p x265 HEVC Latino – Inglés
  • Captura de El planeta de los simios: Confrontación (2014) 1080p x265 HEVC Latino – Inglés
  • Captura de El planeta de los simios: Confrontación (2014) 1080p x265 HEVC Latino – Inglés
  • Captura de El planeta de los simios: Confrontación (2014) 1080p x265 HEVC Latino – Inglés
Lista de enlaces para usuarios donadores

Al donar para la pagina se obtiene acceso a una membresia para poder tener mas links de descargas.

  Enlaces Donadores
Enlaces para usuarios anonimos:

Si no tienes acceso a la membresia, igualmente puedes descargar desde nuestro sitio.

  Enlaces Publicos
Password: