Ver Trailer

MKV 1080p | x265 HEVC | Español Latino AC3 2.0 [224 Kbps] + Inglés DTS 5.1 [1509 Kbps] | 4.11 GB

MediaInfo

El Demonio (2001) 1080p BluRay x265 HEVC DTS Dual Latino.mkv Format : Matroska Format version : Version 4 / Version 2 File size : 4.11 GiB Duration : 1h 31mn Overall bit rate : 6 468 Kbps Encoded date : UTC 2016-11-02 00:41:31 Writing application : mkvmerge v8.6.1 ('Flying') 64bit Writing library : libebml v1.3.3 + libmatroska v1.4.4 DURATION : 00:57:23.064000000 NUMBER_OF_FRAMES : 7 NUMBER_OF_BYTES : 140 _STATISTICS_WRITING_APP : mkvmerge v8.6.1 ('Flying') 64bit _STATISTICS_WRITING_DATE_UT : 2016-11-02 00:41:31 _STATISTICS_TAGS : BPS DURATION NUMBER_OF_FRAMES NUMBER_OF_BYTES Video ID : 1 Format : HEVC Format/Info : High Efficiency Video Coding Format profile : Main@L4@Main Codec ID : V_MPEGH/ISO/HEVC Duration : 1h 31mn Bit rate : 4 607 Kbps Width : 1 920 pixels Height : 1 080 pixels Display aspect ratio : 16:9 Frame rate mode : Constant Frame rate : 23.976 fps Color space : YUV Chroma subsampling : 4:2:0 Bit depth : 8 bits Bits/(Pixel*Frame) : 0.093 Stream size : 2.93 GiB (71%) Writing library : x265 1.9:[Windows][GCC 4.9.0][64 bit] 8bit Encoding settings : wpp / ctu=64 / min-cu-size=8 / max-tu-size=32 / tu-intra-depth=1 / tu-inter-depth=1 / me=3 / subme=3 / merange=57 / rect / no-amp / max-merge=3 / temporal-mvp / no-early-skip / rdpenalty=0 / no-tskip / no-tskip-fast / strong-intra-smoothing / no-lossless / no-cu-lossless / no-constrained-intra / no-fast-intra / open-gop / no-temporal-layers / interlace=0 / keyint=240 / min-keyint=24 / scenecut=40 / rc-lookahead=25 / lookahead-slices=4 / bframes=4 / bframe-bias=0 / b-adapt=2 / ref=4 / limit-refs=3 / limit-modes / weightp / no-weightb / aq-mode=1 / qg-size=32 / aq-strength=1.00 / cbqpoffs=0 / crqpoffs=0 / rd=4 / psy-rd=2.00 / rdoq-level=2 / psy-rdoq=1.00 / signhide / deblock / sao / no-sao-non-deblock / b-pyramid / cutree / no-intra-refresh / rc=crf / crf=20.0 / qcomp=0.60 / qpmin=0 / qpmax=51 / qpstep=4 / ipratio=1.40 / pbratio=1.30 Default : Yes Forced : No Color range : Limited Color primaries : BT.709 Transfer characteristics : BT.709 Matrix coefficients : BT.709 DURATION : 01:30:59.955000000 NUMBER_OF_FRAMES : 130907 NUMBER_OF_BYTES : 3212919625 _STATISTICS_WRITING_APP : mkvmerge v8.6.1 ('Flying') 64bit _STATISTICS_WRITING_DATE_UT : 2016-11-02 00:41:31 _STATISTICS_TAGS : BPS DURATION NUMBER_OF_FRAMES NUMBER_OF_BYTES Audio #1 ID : 2 Format : AC-3 Format/Info : Audio Coding 3 Mode extension : CM (complete main) Format settings, Endianness : Big Codec ID : A_AC3 Duration : 1h 31mn Bit rate mode : Constant Bit rate : 224 Kbps Channel(s) : 2 channels Channel positions : Front: L R Sampling rate : 48.0 KHz Compression mode : Lossy Delay relative to video : -83ms Stream size : 146 MiB (3%) Title : Español Latino AC3 2.0 [224 Kbps] Language : Spanish Default : Yes Forced : No Audio #2 ID : 3 Format : DTS Format/Info : Digital Theater Systems Mode : 16 Format settings, Endianness : Big Codec ID : A_DTS Duration : 1h 31mn Bit rate mode : Constant Bit rate : 1 509 Kbps Channel(s) : 6 channels Channel positions : Front: L C R, Side: L R, LFE Sampling rate : 48.0 KHz Bit depth : 24 bits Compression mode : Lossy Delay relative to video : -83ms Stream size : 982 MiB (23%) Title : Inglés DTS 5.1 [1509 Kbps] Language : English Default : No Forced : No Text #1 ID : 4 Format : PGS Codec ID : S_HDMV/PGS Codec ID/Info : Picture based subtitle format used on BDs/HD-DVDs Title : Subtítulos Español Latino [PGS] Language : Spanish Default : No Forced : No Text #2 ID : 5 Format : PGS Codec ID : S_HDMV/PGS Codec ID/Info : Picture based subtitle format used on BDs/HD-DVDs Title : Subtítulos Español Latino - Forzados [PGS] Language : Spanish Default : No Forced : No Text #3 ID : 6 Format : UTF-8 Codec ID : S_TEXT/UTF8 Codec ID/Info : UTF-8 Plain Text Title : Subtítulos Español Latino - Forzados [SRT] Language : Spanish Default : No Forced : Yes Menu 00:00:00.000 : :Chapter 1 00:01:28.421 : :Chapter 2 00:04:38.069 : :Chapter 3 00:08:09.113 : :Chapter 4 00:10:05.062 : :Chapter 5 00:13:32.061 : :Chapter 6 00:16:00.626 : :Chapter 7 00:20:31.688 : :Chapter 8 00:26:01.017 : :Chapter 9 00:30:24.531 : :Chapter 10 00:32:14.349 : :Chapter 11 00:34:49.462 : :Chapter 12 00:38:41.527 : :Chapter 13 00:43:16.468 : :Chapter 14 00:50:04.710 : :Chapter 15 00:55:38.668 : :Chapter 16 01:01:41.864 : :Chapter 17 01:03:13.372 : :Chapter 18 01:08:05.414 : :Chapter 19 01:09:40.843 : :Chapter 20 01:13:22.648 : :Chapter 21 01:16:06.645 : :Chapter 22 01:21:18.290 : :Chapter 23 01:24:56.174 : :Chapter 24

Capturas de la Pelicula

  • Captura de El Demonio (2001) 1080p BluRay x265 HEVC DTS Dual Latino
  • Captura de El Demonio (2001) 1080p BluRay x265 HEVC DTS Dual Latino
  • Captura de El Demonio (2001) 1080p BluRay x265 HEVC DTS Dual Latino
  • Captura de El Demonio (2001) 1080p BluRay x265 HEVC DTS Dual Latino
Lista de enlaces para usuarios donadores

Al donar para la pagina se obtiene acceso a una membresia para poder tener mas links de descargas.

  Enlaces Donadores
Enlaces para usuarios anonimos:

Si no tienes acceso a la membresia, igualmente puedes descargar desde nuestro sitio.

  Enlaces Publicos
Password: