Ver Trailer

MKV 1080p | x265 HEVC | Español Latino AC3 5.1 [448 Kbps] + Inglés DTS 5.1 [1509 Kbps] | 3.94 GB

MediaInfo

El Demonio 2 (2003) 1080p BluRay x265 HEVC DTS Dual Latino.mkv Format : Matroska Format version : Version 4 / Version 2 File size : 3.94 GiB Duration : 1h 44mn Overall bit rate : 5 421 Kbps Encoded date : UTC 2016-11-08 11:34:41 Writing application : mkvmerge v8.6.1 ('Flying') 64bit Writing library : libebml v1.3.3 + libmatroska v1.4.4 DURATION : 01:36:26.489000000 NUMBER_OF_FRAMES : 1592 NUMBER_OF_BYTES : 13139029 _STATISTICS_WRITING_APP : mkvmerge v8.6.1 ('Flying') 64bit _STATISTICS_WRITING_DATE_UT : 2016-11-08 11:34:41 _STATISTICS_TAGS : BPS DURATION NUMBER_OF_FRAMES NUMBER_OF_BYTES Video ID : 1 Format : HEVC Format/Info : High Efficiency Video Coding Format profile : Main@L4@Main Codec ID : V_MPEGH/ISO/HEVC Duration : 1h 44mn Bit rate : 3 356 Kbps Width : 1 920 pixels Height : 1 080 pixels Display aspect ratio : 16:9 Frame rate mode : Constant Frame rate : 23.976 fps Color space : YUV Chroma subsampling : 4:2:0 Bit depth : 8 bits Bits/(Pixel*Frame) : 0.067 Stream size : 2.44 GiB (62%) Writing library : x265 1.9:[Windows][GCC 4.9.0][64 bit] 8bit Encoding settings : wpp / ctu=64 / min-cu-size=8 / max-tu-size=32 / tu-intra-depth=1 / tu-inter-depth=1 / me=3 / subme=3 / merange=57 / rect / no-amp / max-merge=3 / temporal-mvp / no-early-skip / rdpenalty=0 / no-tskip / no-tskip-fast / strong-intra-smoothing / no-lossless / no-cu-lossless / no-constrained-intra / no-fast-intra / open-gop / no-temporal-layers / interlace=0 / keyint=240 / min-keyint=24 / scenecut=40 / rc-lookahead=25 / lookahead-slices=4 / bframes=4 / bframe-bias=0 / b-adapt=2 / ref=4 / limit-refs=3 / limit-modes / weightp / no-weightb / aq-mode=1 / qg-size=32 / aq-strength=1.00 / cbqpoffs=0 / crqpoffs=0 / rd=4 / psy-rd=2.00 / rdoq-level=2 / psy-rdoq=1.00 / signhide / deblock / sao / no-sao-non-deblock / b-pyramid / cutree / no-intra-refresh / rc=crf / crf=20.0 / qcomp=0.60 / qpmin=0 / qpmax=51 / qpstep=4 / ipratio=1.40 / pbratio=1.30 Default : Yes Forced : No Color range : Limited Color primaries : BT.709 Transfer characteristics : BT.709 Matrix coefficients : BT.709 DURATION : 01:44:04.280000000 NUMBER_OF_FRAMES : 149712 NUMBER_OF_BYTES : 2688350443 _STATISTICS_WRITING_APP : mkvmerge v8.6.1 ('Flying') 64bit _STATISTICS_WRITING_DATE_UT : 2016-11-08 11:34:41 _STATISTICS_TAGS : BPS DURATION NUMBER_OF_FRAMES NUMBER_OF_BYTES Audio #1 ID : 2 Format : AC-3 Format/Info : Audio Coding 3 Mode extension : CM (complete main) Format settings, Endianness : Big Codec ID : A_AC3 Duration : 1h 44mn Bit rate mode : Constant Bit rate : 448 Kbps Channel(s) : 6 channels Channel positions : Front: L C R, Side: L R, LFE Sampling rate : 48.0 KHz Compression mode : Lossy Delay relative to video : -83ms Stream size : 333 MiB (8%) Title : Español Latino AC3 5.1 [448 Kbps] Language : Spanish Default : Yes Forced : No Audio #2 ID : 3 Format : DTS Format/Info : Digital Theater Systems Mode : 16 Format settings, Endianness : Big Codec ID : A_DTS Duration : 1h 44mn Bit rate mode : Constant Bit rate : 1 509 Kbps Channel(s) : 6 channels Channel positions : Front: L C R, Side: L R, LFE Sampling rate : 48.0 KHz Bit depth : 24 bits Compression mode : Lossy Delay relative to video : -83ms Stream size : 1.10 GiB (28%) Title : Inglés DTS 5.1 [1509 Kbps] Language : English Default : No Forced : No Text ID : 4 Format : PGS Codec ID : S_HDMV/PGS Codec ID/Info : Picture based subtitle format used on BDs/HD-DVDs Title : Subtítulos Español Latino [PGS] Language : Spanish Default : No Forced : No Menu 00:00:00.000 : :Chapter 1 00:04:57.130 : :Chapter 2 00:06:16.250 : :Chapter 3 00:08:02.899 : :Chapter 4 00:12:59.653 : :Chapter 5 00:15:24.465 : :Chapter 6 00:18:03.665 : :Chapter 7 00:20:42.533 : :Chapter 8 00:23:17.104 : :Chapter 9 00:26:26.960 : :Chapter 10 00:29:00.071 : :Chapter 11 00:30:46.928 : :Chapter 12 00:32:29.280 : :Chapter 13 00:35:43.433 : :Chapter 14 00:39:45.925 : :Chapter 15 00:42:34.802 : :Chapter 16 00:45:32.479 : :Chapter 17 00:48:45.422 : :Chapter 18 00:50:50.714 : :Chapter 19 00:55:25.822 : :Chapter 20 00:57:42.917 : :Chapter 21 01:00:07.478 : :Chapter 22 01:05:35.514 : :Chapter 23 01:09:31.041 : :Chapter 24 01:11:23.028 : :Chapter 25 01:13:01.627 : :Chapter 26 01:16:24.955 : :Chapter 27 01:20:45.006 : :Chapter 28 01:24:45.330 : :Chapter 29 01:29:41.501 : :Chapter 30 01:33:48.831 : :Chapter 31 01:38:02.835 : :Chapter 32

Capturas de la Pelicula

  • Captura de El Demonio 2 (2003) 1080p BluRay x265 HEVC DTS Dual Latino
  • Captura de El Demonio 2 (2003) 1080p BluRay x265 HEVC DTS Dual Latino
  • Captura de El Demonio 2 (2003) 1080p BluRay x265 HEVC DTS Dual Latino
  • Captura de El Demonio 2 (2003) 1080p BluRay x265 HEVC DTS Dual Latino
Lista de enlaces para usuarios donadores

Al donar para la pagina se obtiene acceso a una membresia para poder tener mas links de descargas.

  Enlaces Donadores
Enlaces para usuarios anonimos:

Si no tienes acceso a la membresia, igualmente puedes descargar desde nuestro sitio.

  Enlaces Publicos
Password: