Ver Trailer

Deadpool (2016) Latino - Ingles 1080p x265

MediaInfo

General Complete name : K:\Deadpool.2016.x265.addkiqe.mkv Format : Matroska Format version : Version 2 File size : 3.47 GiB Duration : 1h 48mn Overall bit rate : 4 598 Kbps Encoded date : UTC 2016-04-30T03:29:18Z Writing application : HandBrake 0.10.5 2016021100 Writing library : Lavf55.12.0 / Lavf55.12.0 Video ID : 1 Format : HEVC Format/Info : High Efficiency Video Coding Format profile : Main@L4@Main Codec ID : V_MPEGH/ISO/HEVC Duration : 1h 48mn Bit rate : 2 550 Kbps Width : 1 920 pixels Height : 1 080 pixels Display aspect ratio : 16:9 Frame rate mode : Constant Frame rate : 23.976 (24000/1001) fps Color space : YUV Chroma subsampling : 4:2:0 Bit depth : 8 bits Bits/(Pixel*Frame) : 0.051 Stream size : 1.93 GiB (55%) Writing library : x265 1.9:[Windows][GCC 4.9.0][64 bit] 8bit Encoding settings : wpp / ctu=64 / min-cu-size=8 / max-tu-size=32 / tu-intra-depth=2 / tu-inter-depth=2 / me=3 / subme=3 / merange=57 / rect / amp / max-merge=3 / temporal-mvp / no-early-skip / rdpenalty=0 / no-tskip / no-tskip-fast / strong-intra-smoothing / no-lossless / no-cu-lossless / no-constrained-intra / no-fast-intra / open-gop / no-temporal-layers / interlace=0 / keyint=240 / min-keyint=24 / scenecut=40 / rc-lookahead=30 / lookahead-slices=4 / bframes=8 / bframe-bias=0 / b-adapt=2 / ref=4 / limit-refs=2 / limit-modes / weightp / weightb / aq-mode=1 / qg-size=32 / aq-strength=1.00 / cbqpoffs=0 / crqpoffs=0 / rd=6 / psy-rd=2.00 / rdoq-level=2 / psy-rdoq=1.00 / signhide / deblock / sao / no-sao-non-deblock / b-pyramid / cutree / no-intra-refresh / rc=crf / crf=20.0 / qcomp=0.60 / qpmin=0 / qpmax=51 / qpstep=4 / ipratio=1.40 / pbratio=1.30 Default : Yes Forced : No Color range : Limited Color primaries : BT.709 Transfer characteristics : BT.709 Matrix coefficients : BT.709 Audio #1 ID : 2 Format : AC-3 Format/Info : Audio Coding 3 Mode extension : CM (complete main) Format settings, Endianness : Big Codec ID : A_AC3 Duration : 1h 48mn Bit rate mode : Constant Bit rate : 448 Kbps Channel(s) : 6 channels Channel positions : Front: L C R, Side: L R, LFE Sampling rate : 48.0 KHz Frame rate : 31.250 fps (1536 spf) Compression mode : Lossy Stream size : 346 MiB (10%) Title : Surround Language : Spanish Default : Yes Forced : No Audio #2 ID : 3 Format : DTS Format/Info : Digital Theater Systems Format profile : ES Matrix / Core Mode : 16 Format settings, Endianness : Big Codec ID : A_DTS Duration : 1h 48mn Bit rate mode : Constant Bit rate : 1 509 Kbps Channel(s) : 7 channels / 6 channels Channel positions : Front: L C R, Side: L R, Back: C, LFE / Front: L C R, Side: L R, LFE Sampling rate : 48.0 KHz Frame rate : 93.750 fps (512 spf) Bit depth : 24 bits Compression mode : Lossy Stream size : 1.14 GiB (33%) Title : Surround Language : English Default : No Forced : No Text #1 ID : 4 Format : PGS Codec ID : S_HDMV/PGS Codec ID/Info : Picture based subtitle format used on BDs/HD-DVDs Language : Spanish Default : No Forced : No Text #2 ID : 5 Format : PGS Codec ID : S_HDMV/PGS Codec ID/Info : Picture based subtitle format used on BDs/HD-DVDs Language : English Default : No Forced : No Menu 00:00:00.000 : :Chapter 1 00:03:04.826 : :Chapter 2 00:05:53.119 : :Chapter 3 00:09:30.920 : :Chapter 4 00:13:19.190 : :Chapter 5 00:16:48.816 : :Chapter 6 00:20:12.645 : :Chapter 7 00:22:06.508 : :Chapter 8 00:27:09.728 : :Chapter 9 00:31:59.059 : :Chapter 10 00:36:51.810 : :Chapter 11 00:41:06.272 : :Chapter 12 00:44:45.866 : :Chapter 13 00:46:56.705 : :Chapter 14 00:50:11.066 : :Chapter 15 00:53:18.128 : :Chapter 16 00:55:33.138 : :Chapter 17 00:59:07.853 : :Chapter 18 01:03:05.340 : :Chapter 19 01:07:06.539 : :Chapter 20 01:09:15.668 : :Chapter 21 01:12:29.820 : :Chapter 22 01:16:46.493 : :Chapter 23 01:20:43.814 : :Chapter 24 01:25:53.498 : :Chapter 25 01:31:03.892 : :Chapter 26 01:34:47.073 : :Chapter 27 01:39:52.837 : :Chapter 28

Capturas de la Pelicula

  • Captura de Deadpool (2016) Latino – Ingles 1080p x265
  • Captura de Deadpool (2016) Latino – Ingles 1080p x265
  • Captura de Deadpool (2016) Latino – Ingles 1080p x265
  • Captura de Deadpool (2016) Latino – Ingles 1080p x265
Lista de enlaces para usuarios donadores

Al donar para la pagina se obtiene acceso a una membresia para poder tener mas links de descargas.

  Enlaces Donadores
Enlaces para usuarios anonimos:

Si no tienes acceso a la membresia, igualmente puedes descargar desde nuestro sitio.

  Enlaces Publicos
Password: