Ver Trailer

MKV 1080p | x265 HEVC | Español Latino AC3 5.1 [640 Kbps] + Inglés DTS 5.1 [1509 Kbps] | 5.64 GB

MediaInfo

Crepúsculo (2008) 1080p BluRay x265 HEVC DTS Dual Latino.mkv Format : Matroska Format version : Version 4 / Version 2 File size : 5.64 GiB Duration : 2h 1mn Overall bit rate : 6 631 Kbps Encoded date : UTC 2016-10-10 13:53:21 Writing application : mkvmerge v8.6.1 ('Flying') 64bit Writing library : libebml v1.3.3 + libmatroska v1.4.4 DURATION : 01:17:32.273000000 NUMBER_OF_FRAMES : 6 NUMBER_OF_BYTES : 166 _STATISTICS_WRITING_APP : mkvmerge v8.6.1 ('Flying') 64bit _STATISTICS_WRITING_DATE_UT : 2016-10-10 13:53:21 _STATISTICS_TAGS : BPS DURATION NUMBER_OF_FRAMES NUMBER_OF_BYTES Video ID : 1 Format : HEVC Format/Info : High Efficiency Video Coding Format profile : Main@L4@Main Codec ID : V_MPEGH/ISO/HEVC Duration : 2h 1mn Bit rate : 4 350 Kbps Width : 1 920 pixels Height : 1 080 pixels Display aspect ratio : 16:9 Frame rate mode : Constant Frame rate : 23.976 fps Color space : YUV Chroma subsampling : 4:2:0 Bit depth : 8 bits Bits/(Pixel*Frame) : 0.087 Stream size : 3.70 GiB (66%) Writing library : x265 1.9:[Windows][GCC 4.9.0][64 bit] 8bit Encoding settings : wpp / ctu=64 / min-cu-size=8 / max-tu-size=32 / tu-intra-depth=1 / tu-inter-depth=1 / me=3 / subme=3 / merange=57 / rect / no-amp / max-merge=3 / temporal-mvp / no-early-skip / rdpenalty=0 / no-tskip / no-tskip-fast / strong-intra-smoothing / no-lossless / no-cu-lossless / no-constrained-intra / no-fast-intra / open-gop / no-temporal-layers / interlace=0 / keyint=240 / min-keyint=24 / scenecut=40 / rc-lookahead=25 / lookahead-slices=4 / bframes=4 / bframe-bias=0 / b-adapt=2 / ref=4 / limit-refs=3 / limit-modes / weightp / no-weightb / aq-mode=1 / qg-size=32 / aq-strength=1.00 / cbqpoffs=0 / crqpoffs=0 / rd=4 / psy-rd=2.00 / rdoq-level=2 / psy-rdoq=1.00 / signhide / deblock / sao / no-sao-non-deblock / b-pyramid / cutree / no-intra-refresh / rc=crf / crf=20.0 / qcomp=0.60 / qpmin=0 / qpmax=51 / qpstep=4 / ipratio=1.40 / pbratio=1.30 Default : Yes Forced : No Color range : Limited Color primaries : BT.709 Transfer characteristics : BT.709 Matrix coefficients : BT.709 DURATION : 02:01:50.303000000 NUMBER_OF_FRAMES : 175272 NUMBER_OF_BYTES : 4068774191 _STATISTICS_WRITING_APP : mkvmerge v8.6.1 ('Flying') 64bit _STATISTICS_WRITING_DATE_UT : 2016-10-10 13:53:21 _STATISTICS_TAGS : BPS DURATION NUMBER_OF_FRAMES NUMBER_OF_BYTES Audio #1 ID : 2 Format : AC-3 Format/Info : Audio Coding 3 Mode extension : CM (complete main) Format settings, Endianness : Big Codec ID : A_AC3 Duration : 2h 1mn Bit rate mode : Constant Bit rate : 640 Kbps Channel(s) : 6 channels Channel positions : Front: L C R, Side: L R, LFE Sampling rate : 48.0 KHz Compression mode : Lossy Delay relative to video : -83ms Stream size : 558 MiB (10%) Title : Español Latino AC3 5.1 [640 Kbps] Language : Spanish Default : Yes Forced : No Audio #2 ID : 3 Format : DTS Format/Info : Digital Theater Systems Mode : 16 Format settings, Endianness : Big Codec ID : A_DTS Duration : 2h 1mn Bit rate mode : Constant Bit rate : 1 509 Kbps Channel(s) : 6 channels Channel positions : Front: L C R, Side: L R, LFE Sampling rate : 48.0 KHz Bit depth : 24 bits Compression mode : Lossy Delay relative to video : -83ms Stream size : 1.28 GiB (23%) Title : Inglés DTS 5.1 [1509 Kbps] Language : English Default : No Forced : No Text #1 ID : 4 Format : PGS Codec ID : S_HDMV/PGS Codec ID/Info : Picture based subtitle format used on BDs/HD-DVDs Title : Subtítulos Español Latino [PGS] Language : Spanish Default : No Forced : No Text #2 ID : 5 Format : UTF-8 Codec ID : S_TEXT/UTF8 Codec ID/Info : UTF-8 Plain Text Title : Subtítulos Español Latino - Forzados [SRT] Language : Spanish Default : No Forced : Yes Menu 00:00:00.000 : :Chapter 1 00:05:41.758 : :Chapter 2 00:20:50.832 : :Chapter 3 00:21:56.690 : :Chapter 4 00:30:24.489 : :Chapter 5 00:31:57.332 : :Chapter 6 00:33:48.818 : :Chapter 7 00:35:25.331 : :Chapter 8 00:50:15.053 : :Chapter 9 00:56:16.873 : :Chapter 10 01:12:13.454 : :Chapter 11 01:18:50.142 : :Chapter 12 01:29:37.872 : :Chapter 13 01:35:47.908 : :Chapter 14 01:47:31.903 : :Chapter 15 01:49:00.450 : :Chapter 16 01:50:01.052 : :Chapter 17

Capturas de la Pelicula

  • Captura de Crepúsculo (2008) 1080p BluRay x265 HEVC DTS Dual Latino
  • Captura de Crepúsculo (2008) 1080p BluRay x265 HEVC DTS Dual Latino
  • Captura de Crepúsculo (2008) 1080p BluRay x265 HEVC DTS Dual Latino
  • Captura de Crepúsculo (2008) 1080p BluRay x265 HEVC DTS Dual Latino
Lista de enlaces para usuarios donadores

Al donar para la pagina se obtiene acceso a una membresia para poder tener mas links de descargas.

  Enlaces Donadores
Enlaces para usuarios anonimos:

Si no tienes acceso a la membresia, igualmente puedes descargar desde nuestro sitio.

  Enlaces Publicos
Password: