Ver Trailer

Batman V. Superman THEATRICAL (2016) Latino - Ingles 1080p x265

MediaInfo

General Unique ID : 211980467299148575155399244194510685728 (0x9F79F3F52A1AC53A8B7D33FEF75E4620) Complete name : E:\Batman.v.Superman.Dawn.of.Justice.2016.1080p.BluRay.x265.HEVC.Latino-Papelillio.mkv Format : Matroska Format version : Version 4 / Version 2 File size : 5.93 GiB Duration : 2h 31mn Overall bit rate : 5 599 Kbps Encoded date : UTC 2016-07-09 03:41:07 Writing application : mkvmerge v7.4.0 ('Circles') 64bit built on Dec 12 2014 12:19:56 Writing library : libebml v1.3.0 + libmatroska v1.4.1 DURATION : 02:30:30.646000000 NUMBER_OF_FRAMES : 104 NUMBER_OF_BYTES : 329328 _STATISTICS_WRITING_APP : mkvmerge v7.4.0 ('Circles') 64bit built on Dec 12 2014 12:19:56 _STATISTICS_WRITING_DATE_UTC : 2016-07-09 03:41:07 _STATISTICS_TAGS : BPS DURATION NUMBER_OF_FRAMES NUMBER_OF_BYTES Video ID : 1 Format : HEVC Format/Info : High Efficiency Video Coding Format profile : Main@L4@Main Codec ID : V_MPEGH/ISO/HEVC Duration : 2h 31mn Bit rate : 4 592 Kbps Width : 1 920 pixels Height : 1 080 pixels Display aspect ratio : 16:9 Frame rate mode : Constant Frame rate : 23.976 fps Color space : YUV Chroma subsampling : 4:2:0 Bit depth : 8 bits Bits/(Pixel*Frame) : 0.092 Stream size : 4.86 GiB (82%) Title : Fuente Encodeo: BD50 - Papelillio Writing library : x265 1.9:[Windows][GCC 4.9.0][64 bit] 8bit Encoding settings : wpp / ctu=64 / min-cu-size=8 / max-tu-size=32 / tu-intra-depth=1 / tu-inter-depth=1 / me=3 / subme=3 / merange=57 / rect / no-amp / max-merge=3 / temporal-mvp / no-early-skip / rdpenalty=0 / no-tskip / no-tskip-fast / strong-intra-smoothing / no-lossless / no-cu-lossless / no-constrained-intra / no-fast-intra / open-gop / no-temporal-layers / interlace=0 / keyint=240 / min-keyint=24 / scenecut=40 / rc-lookahead=25 / lookahead-slices=4 / bframes=4 / bframe-bias=0 / b-adapt=2 / ref=4 / limit-refs=3 / limit-modes / weightp / no-weightb / aq-mode=1 / qg-size=32 / aq-strength=1.00 / cbqpoffs=0 / crqpoffs=0 / rd=4 / psy-rd=2.00 / rdoq-level=2 / psy-rdoq=1.00 / signhide / deblock / sao / no-sao-non-deblock / b-pyramid / cutree / no-intra-refresh / rc=crf / crf=20.0 / qcomp=0.60 / qpmin=0 / qpmax=51 / qpstep=4 / ipratio=1.40 / pbratio=1.30 Default : Yes Forced : No Color range : Limited Color primaries : BT.709 Transfer characteristics : BT.709 Matrix coefficients : BT.709 DURATION : 02:31:40.300000000 NUMBER_OF_FRAMES : 218189 NUMBER_OF_BYTES : 5339675167 _STATISTICS_WRITING_APP : mkvmerge v7.4.0 ('Circles') 64bit built on Dec 12 2014 12:19:56 _STATISTICS_WRITING_DATE_UTC : 2016-07-09 03:41:07 _STATISTICS_TAGS : BPS DURATION NUMBER_OF_FRAMES NUMBER_OF_BYTES Audio #1 ID : 2 Format : AC-3 Format/Info : Audio Coding 3 Mode extension : CM (complete main) Format settings, Endianness : Big Codec ID : A_AC3 Duration : 2h 31mn Bit rate mode : Constant Bit rate : 448 Kbps Channel(s) : 6 channels Channel positions : Front: L C R, Side: L R, LFE Sampling rate : 48.0 KHz Compression mode : Lossy Delay relative to video : -83ms Stream size : 486 MiB (8%) Title : Audio Español Latino AC3 5.1 @448Kbps - Papelillio Language : Spanish Default : Yes Forced : No Audio #2 ID : 3 Format : AC-3 Format/Info : Audio Coding 3 Mode extension : CM (complete main) Format settings, Endianness : Big Codec ID : A_AC3 Duration : 2h 31mn Bit rate mode : Constant Bit rate : 448 Kbps Channel(s) : 6 channels Channel positions : Front: L C R, Side: L R, LFE Sampling rate : 48.0 KHz Compression mode : Lossy Delay relative to video : -83ms Stream size : 486 MiB (8%) Title : Audio Inglés AC3 5.1 @448Kbps - Papelillio Language : English Default : No Forced : No Text #1 ID : 4 Format : UTF-8 Codec ID : S_TEXT/UTF8 Codec ID/Info : UTF-8 Plain Text Title : Subtítulos Español Latino - Forzados (SRT) - Papelillio Language : Spanish Default : Yes Forced : No Text #2 ID : 5 Format : UTF-8 Codec ID : S_TEXT/UTF8 Codec ID/Info : UTF-8 Plain Text Title : Subtítulos Español Latino (SRT) - Papelillio Language : Spanish Default : No Forced : No Text #3 ID : 6 Format : PGS Muxing mode : zlib Codec ID : S_HDMV/PGS Codec ID/Info : Picture based subtitle format used on BDs/HD-DVDs Title : Subtítulos Español Latino - Forzados (PGS) - Papelillio Language : Spanish Default : No Forced : No Text #4 ID : 7 Format : PGS Muxing mode : zlib Codec ID : S_HDMV/PGS Codec ID/Info : Picture based subtitle format used on BDs/HD-DVDs Title : Subtítulos Español Latino (PGS) - Papelillio Language : Spanish Default : No Forced : No Menu 00:00:00.000 : :Chapter 1 00:09:50.131 : :Chapter 2 00:20:45.869 : :Chapter 3 00:29:58.755 : :Chapter 4 00:38:46.699 : :Chapter 5 00:49:26.004 : :Chapter 6 00:59:21.641 : :Chapter 7 01:10:06.285 : :Chapter 8 01:21:15.203 : :Chapter 9 01:30:00.395 : :Chapter 10 01:38:20.895 : :Chapter 11 01:49:57.465 : :Chapter 12 02:01:49.135 : :Chapter 13 02:10:40.499 : :Chapter 14 02:18:41.396 : :Chapter 15 02:23:50.455 : :Chapter 16

Capturas de la Pelicula

  • Captura de Batman V. Superman THEATRICAL (2016) Latino – Ingles 1080p x265
  • Captura de Batman V. Superman THEATRICAL (2016) Latino – Ingles 1080p x265
  • Captura de Batman V. Superman THEATRICAL (2016) Latino – Ingles 1080p x265
  • Captura de Batman V. Superman THEATRICAL (2016) Latino – Ingles 1080p x265
Lista de enlaces para usuarios donadores

Al donar para la pagina se obtiene acceso a una membresia para poder tener mas links de descargas.

  Enlaces Donadores
Enlaces para usuarios anonimos:

Si no tienes acceso a la membresia, igualmente puedes descargar desde nuestro sitio.

  Enlaces Publicos
Password: