Ver Trailer

MKV 1080p | x265 HEVC | Español Latino [AC3 5.1 BD + .SRT + PGS] - Inglés [AC3 5.1 BD] | 3.19GB

MediaInfo

General Complete name : Batman.Begins.2005.1080p.BluRay.x265.HEVC.Dual.Latino-Papelillio.mkv Format : Matroska Format version : Version 4 / Version 2 File size : 3.19 GiB Duration : 2h 20mn Overall bit rate : 3 260 Kbps Encoded date : UTC 2016-03-17 21:52:30 Writing application : mkvmerge v7.9.0 ('Birds') 64bit Writing library : libebml v1.3.1 + libmatroska v1.4.2 Video ID : 1 Format : HEVC Format/Info : High Efficiency Video Coding Format profile : Main@L4@Main Codec ID : V_MPEGH/ISO/HEVC Duration : 2h 20mn Bit rate : 1 967 Kbps Width : 1 920 pixels Height : 1 080 pixels Display aspect ratio : 16:9 Frame rate mode : Constant Frame rate : 23.976 (24000/1001) fps Color space : YUV Chroma subsampling : 4:2:0 Bit depth : 8 bits Bits/(Pixel*Frame) : 0.040 Stream size : 1.92 GiB (60%) Title : Fuente Encodeo: BD50 - Papelillio Writing library : x265 1.9:[Windows][GCC 4.9.0][64 bit] 8bit Encoding settings : wpp / ctu=64 / min-cu-size=8 / max-tu-size=32 / tu-intra-depth=1 / tu-inter-depth=1 / me=3 / subme=3 / merange=57 / rect / no-amp / max-merge=3 / temporal-mvp / no-early-skip / rdpenalty=0 / no-tskip / no-tskip-fast / strong-intra-smoothing / no-lossless / no-cu-lossless / no-constrained-intra / no-fast-intra / open-gop / no-temporal-layers / interlace=0 / keyint=240 / min-keyint=24 / scenecut=40 / rc-lookahead=25 / lookahead-slices=4 / bframes=4 / bframe-bias=0 / b-adapt=2 / ref=4 / limit-refs=3 / limit-modes / weightp / no-weightb / aq-mode=1 / qg-size=32 / aq-strength=1.00 / cbqpoffs=0 / crqpoffs=0 / rd=4 / psy-rd=2.00 / rdoq-level=2 / psy-rdoq=1.00 / signhide / deblock / sao / no-sao-non-deblock / b-pyramid / cutree / no-intra-refresh / rc=crf / crf=20.0 / qcomp=0.60 / qpmin=0 / qpmax=51 / qpstep=4 / ipratio=1.40 / pbratio=1.30 Default : Yes Forced : No Color range : Limited Color primaries : BT.709 Transfer characteristics : BT.709 Matrix coefficients : BT.709 Audio #1 ID : 2 Format : AC-3 Format/Info : Audio Coding 3 Mode extension : CM (complete main) Format settings, Endianness : Big Codec ID : A_AC3 Duration : 2h 20mn Bit rate mode : Constant Bit rate : 640 Kbps Channel(s) : 6 channels Channel positions : Front: L C R, Side: L R, LFE Sampling rate : 48.0 KHz Frame rate : 31.250 fps (1536 spf) Compression mode : Lossy Delay relative to video : -83ms Stream size : 641 MiB (20%) Title : Audio Español Latino AC3 5.1 @640Kbps - Papelillio Language : Spanish Default : Yes Forced : No Audio #2 ID : 3 Format : AC-3 Format/Info : Audio Coding 3 Mode extension : CM (complete main) Format settings, Endianness : Big Codec ID : A_AC3 Duration : 2h 20mn Bit rate mode : Constant Bit rate : 640 Kbps Channel(s) : 6 channels Channel positions : Front: L C R, Side: L R, LFE Sampling rate : 48.0 KHz Frame rate : 31.250 fps (1536 spf) Compression mode : Lossy Delay relative to video : -83ms Stream size : 641 MiB (20%) Title : Audio Inglés AC3 5.1 @640Kbps - Papelillio Language : English Default : No Forced : No Text #1 ID : 4 Format : UTF-8 Codec ID : S_TEXT/UTF8 Codec ID/Info : UTF-8 Plain Text Duration : 2h 19mn Bit rate : 47 bps Count of elements : 1393 Stream size : 48.0 KiB (0%) Title : Subtítulos Español Latino (SRT) - Papelillio Language : Spanish Default : No Forced : No Text #2 ID : 5 Format : PGS Muxing mode : zlib Codec ID : S_HDMV/PGS Codec ID/Info : Picture based subtitle format used on BDs/HD-DVDs Duration : 2h 19mn Bit rate : 11.4 Kbps Count of elements : 2788 Stream size : 11.4 MiB (0%) Title : Subtítulos Español Latino (PGS) - Papelillio Language : Spanish Default : No Forced : No Menu 00:00:00.000 : :Chapter 1 00:03:39.302 : :Chapter 2 00:07:31.200 : :Chapter 3 00:11:34.110 : :Chapter 4 00:16:15.724 : :Chapter 5 00:19:44.433 : :Chapter 6 00:24:19.374 : :Chapter 7 00:28:24.786 : :Chapter 8 00:31:25.466 : :Chapter 9 00:35:53.901 : :Chapter 10 00:38:24.719 : :Chapter 11 00:41:14.722 : :Chapter 12 00:43:08.335 : :Chapter 13 00:46:58.065 : :Chapter 14 00:49:44.064 : :Chapter 15 00:53:26.286 : :Chapter 16 00:55:55.101 : :Chapter 17 00:58:02.228 : :Chapter 18 01:03:31.891 : :Chapter 19 01:05:53.199 : :Chapter 20 01:08:38.864 : :Chapter 21 01:11:25.864 : :Chapter 22 01:13:19.645 : :Chapter 23 01:16:16.321 : :Chapter 24 01:19:50.368 : :Chapter 25 01:23:54.446 : :Chapter 26 01:29:02.754 : :Chapter 27 01:32:36.801 : :Chapter 28 01:37:49.113 : :Chapter 29 01:40:33.777 : :Chapter 30 01:45:09.052 : :Chapter 31 01:49:32.148 : :Chapter 32 01:51:29.265 : :Chapter 33 01:54:49.132 : :Chapter 34 01:58:11.167 : :Chapter 35 02:01:55.057 : :Chapter 36 02:05:01.243 : :Chapter 37 02:06:06.976 : :Chapter 38 02:09:18.500 : :Chapter 39 02:10:57.099 : :Chapter 40

Capturas de la Pelicula

  • Captura de Batman Inicia (2005) 1080p x265 HEVC Latino – Inglés
  • Captura de Batman Inicia (2005) 1080p x265 HEVC Latino – Inglés
  • Captura de Batman Inicia (2005) 1080p x265 HEVC Latino – Inglés
  • Captura de Batman Inicia (2005) 1080p x265 HEVC Latino – Inglés
Lista de enlaces para usuarios donadores

Al donar para la pagina se obtiene acceso a una membresia para poder tener mas links de descargas.

  Enlaces Donadores
Enlaces para usuarios anonimos:

Si no tienes acceso a la membresia, igualmente puedes descargar desde nuestro sitio.

  Enlaces Publicos
Password: