Ver Trailer

MKV 1080p | x265 HEVC | Español Latino [AC3 5.1 BD + .SRT + PGS] - Inglés [AC3 5.1 BD] | 4.85GB

MediaInfo

General Complete name : The.Dark.Knight.2008.IMAX.1080p.BluRay.x265.HEVC.Dual.Latino-Papelillio.mkv Format : Matroska Format version : Version 4 / Version 2 File size : 4.85 GiB Duration : 2h 32mn Overall bit rate : 4 561 Kbps Encoded date : UTC 2016-03-17 22:04:31 Writing application : mkvmerge v7.9.0 ('Birds') 64bit Writing library : libebml v1.3.1 + libmatroska v1.4.2 Video ID : 1 Format : HEVC Format/Info : High Efficiency Video Coding Format profile : Main@L4@Main Codec ID : V_MPEGH/ISO/HEVC Duration : 2h 32mn Bit rate : 3 265 Kbps Width : 1 920 pixels Height : 1 080 pixels Display aspect ratio : 16:9 Frame rate mode : Constant Frame rate : 23.976 (24000/1001) fps Color space : YUV Chroma subsampling : 4:2:0 Bit depth : 8 bits Bits/(Pixel*Frame) : 0.066 Stream size : 3.47 GiB (72%) Title : Fuente Encodeo: BD50 - Papelillio Writing library : x265 1.9:[Windows][GCC 4.9.0][64 bit] 8bit Encoding settings : wpp / ctu=64 / min-cu-size=8 / max-tu-size=32 / tu-intra-depth=1 / tu-inter-depth=1 / me=3 / subme=3 / merange=57 / rect / no-amp / max-merge=3 / temporal-mvp / no-early-skip / rdpenalty=0 / no-tskip / no-tskip-fast / strong-intra-smoothing / no-lossless / no-cu-lossless / no-constrained-intra / no-fast-intra / open-gop / no-temporal-layers / interlace=0 / keyint=240 / min-keyint=24 / scenecut=40 / rc-lookahead=25 / lookahead-slices=4 / bframes=4 / bframe-bias=0 / b-adapt=2 / ref=4 / limit-refs=3 / limit-modes / weightp / no-weightb / aq-mode=1 / qg-size=32 / aq-strength=1.00 / cbqpoffs=0 / crqpoffs=0 / rd=4 / psy-rd=2.00 / rdoq-level=2 / psy-rdoq=1.00 / signhide / deblock / sao / no-sao-non-deblock / b-pyramid / cutree / no-intra-refresh / rc=crf / crf=20.0 / qcomp=0.60 / qpmin=0 / qpmax=51 / qpstep=4 / ipratio=1.40 / pbratio=1.30 Default : Yes Forced : No Color range : Limited Color primaries : BT.709 Transfer characteristics : BT.709 Matrix coefficients : BT.709 Audio #1 ID : 2 Format : AC-3 Format/Info : Audio Coding 3 Mode extension : CM (complete main) Format settings, Endianness : Big Codec ID : A_AC3 Duration : 2h 32mn Bit rate mode : Constant Bit rate : 640 Kbps Channel(s) : 6 channels Channel positions : Front: L C R, Side: L R, LFE Sampling rate : 48.0 KHz Frame rate : 31.250 fps (1536 spf) Compression mode : Lossy Delay relative to video : -83ms Stream size : 697 MiB (14%) Title : Audio Español Latino AC3 5.1 @640Kbps - Papelillio Language : Spanish Default : Yes Forced : No Audio #2 ID : 3 Format : AC-3 Format/Info : Audio Coding 3 Mode extension : CM (complete main) Format settings, Endianness : Big Codec ID : A_AC3 Duration : 2h 32mn Bit rate mode : Constant Bit rate : 640 Kbps Channel(s) : 6 channels Channel positions : Front: L C R, Side: L R, LFE Sampling rate : 48.0 KHz Frame rate : 31.250 fps (1536 spf) Compression mode : Lossy Delay relative to video : -83ms Stream size : 697 MiB (14%) Title : Audio Inglés AC3 5.1 @640Kbps - Papelillio Language : English Default : No Forced : No Text #1 ID : 4 Format : UTF-8 Codec ID : S_TEXT/UTF8 Codec ID/Info : UTF-8 Plain Text Duration : 2h 17mn Bit rate : 0 bps Count of elements : 21 Stream size : 616 Bytes (0%) Title : Subtítulos Español Latino - Forzados (SRT) - Papelillio Language : Spanish Default : Yes Forced : No Text #2 ID : 5 Format : UTF-8 Codec ID : S_TEXT/UTF8 Codec ID/Info : UTF-8 Plain Text Duration : 2h 30mn Bit rate : 58 bps Count of elements : 1802 Stream size : 64.3 KiB (0%) Title : Subtítulos Español Latino (SRT) - Papelillio Language : Spanish Default : No Forced : No Text #3 ID : 6 Format : PGS Muxing mode : zlib Codec ID : S_HDMV/PGS Codec ID/Info : Picture based subtitle format used on BDs/HD-DVDs Duration : 2h 23mn Bit rate : 160 bps Count of elements : 44 Stream size : 169 KiB (0%) Title : Subtítulos Español Latino - Forzados (PGS) - Papelillio Language : Spanish Default : No Forced : No Text #4 ID : 7 Format : PGS Muxing mode : zlib Codec ID : S_HDMV/PGS Codec ID/Info : Picture based subtitle format used on BDs/HD-DVDs Duration : 2h 30mn Bit rate : 14.2 Kbps Count of elements : 3608 Stream size : 15.3 MiB (0%) Title : Subtítulos Español Latino (PGS) - Papelillio Language : Spanish Default : No Forced : No Menu 00:00:00.000 : :Chapter 1 00:06:24.050 : :Chapter 2 00:10:36.344 : :Chapter 3 00:13:52.665 : :Chapter 4 00:17:54.281 : :Chapter 5 00:21:39.423 : :Chapter 6 00:26:10.110 : :Chapter 7 00:29:36.357 : :Chapter 8 00:31:42.567 : :Chapter 9 00:37:49.141 : :Chapter 10 00:43:34.153 : :Chapter 11 00:46:39.630 : :Chapter 12 00:48:57.851 : :Chapter 13 00:53:19.529 : :Chapter 14 00:57:15.724 : :Chapter 15 00:59:26.437 : :Chapter 16 01:03:59.710 : :Chapter 17 01:08:23.641 : :Chapter 18 01:10:48.410 : :Chapter 19 01:14:25.002 : :Chapter 20 01:18:05.722 : :Chapter 21 01:22:22.520 : :Chapter 22 01:24:48.666 : :Chapter 23 01:30:48.526 : :Chapter 24 01:34:05.056 : :Chapter 25 01:39:57.866 : :Chapter 26 01:42:05.577 : :Chapter 27 01:45:00.002 : :Chapter 28 01:47:00.956 : :Chapter 29 01:51:09.996 : :Chapter 30 01:54:14.722 : :Chapter 31 01:57:04.100 : :Chapter 32 02:00:14.332 : :Chapter 33 02:03:37.660 : :Chapter 34 02:09:07.698 : :Chapter 35 02:12:27.397 : :Chapter 36 02:15:22.864 : :Chapter 37 02:19:58.765 : :Chapter 38 02:24:26.741 : :Chapter 39

Capturas de la Pelicula

  • Captura de Batman: El Caballero de la Noche (2008) IMAX 1080p x265 HEVC Latino – Inglés
  • Captura de Batman: El Caballero de la Noche (2008) IMAX 1080p x265 HEVC Latino – Inglés
  • Captura de Batman: El Caballero de la Noche (2008) IMAX 1080p x265 HEVC Latino – Inglés
  • Captura de Batman: El Caballero de la Noche (2008) IMAX 1080p x265 HEVC Latino – Inglés
Lista de enlaces para usuarios donadores

Al donar para la pagina se obtiene acceso a una membresia para poder tener mas links de descargas.

  Enlaces Donadores
Enlaces para usuarios anonimos:

Si no tienes acceso a la membresia, igualmente puedes descargar desde nuestro sitio.

  Enlaces Publicos
Password: