Ver Trailer

MKV 1080p | x265 HEVC | Español Latino [DTS 5.1 BD + .SRT + PGS] - Inglés [DTS 5.1 BD] | 4.06GB

MediaInfo

General Complete name : American.Wedding.2003.UNRATED.1080p.BluRay.x265.HEVC.DTS.Dual.Latino-Papelillio.mkv Format : Matroska Format version : Version 4 / Version 2 File size : 4.06 GiB Duration : 1h 43mn Overall bit rate : 5 621 Kbps Encoded date : UTC 2016-02-21 19:49:12 Writing application : mkvmerge v7.9.0 ('Birds') 64bit Writing library : libebml v1.3.1 + libmatroska v1.4.2 Video ID : 1 Format : HEVC Format/Info : High Efficiency Video Coding Format profile : Main@L4@Main Codec ID : V_MPEGH/ISO/HEVC Duration : 1h 43mn Bit rate : 3 328 Kbps Width : 1 920 pixels Height : 1 080 pixels Display aspect ratio : 16:9 Frame rate mode : Constant Frame rate : 23.976 (24000/1001) fps Color space : YUV Chroma subsampling : 4:2:0 Bit depth : 8 bits Bits/(Pixel*Frame) : 0.067 Stream size : 2.40 GiB (59%) Title : Fuente Encodeo: BD50 - Papelillio Writing library : x265 1.9:[Windows][GCC 4.9.0][64 bit] 8bit Encoding settings : wpp / ctu=64 / min-cu-size=8 / max-tu-size=32 / tu-intra-depth=1 / tu-inter-depth=1 / me=3 / subme=3 / merange=57 / rect / no-amp / max-merge=3 / temporal-mvp / no-early-skip / rdpenalty=0 / no-tskip / no-tskip-fast / strong-intra-smoothing / no-lossless / no-cu-lossless / no-constrained-intra / no-fast-intra / open-gop / no-temporal-layers / interlace=0 / keyint=240 / min-keyint=24 / scenecut=40 / rc-lookahead=25 / lookahead-slices=4 / bframes=4 / bframe-bias=0 / b-adapt=2 / ref=4 / limit-refs=3 / limit-modes / weightp / no-weightb / aq-mode=1 / qg-size=32 / aq-strength=1.00 / cbqpoffs=0 / crqpoffs=0 / rd=4 / psy-rd=2.00 / rdoq-level=2 / psy-rdoq=1.00 / signhide / deblock / sao / no-sao-non-deblock / b-pyramid / cutree / no-intra-refresh / rc=crf / crf=19.0 / qcomp=0.60 / qpmin=0 / qpmax=51 / qpstep=4 / ipratio=1.40 / pbratio=1.30 Default : Yes Forced : No Color range : Limited Color primaries : BT.709 Transfer characteristics : BT.709 Matrix coefficients : BT.709 Audio #1 ID : 2 Format : DTS Format/Info : Digital Theater Systems Mode : 16 Format settings, Endianness : Big Codec ID : A_DTS Duration : 1h 43mn Bit rate mode : Constant Bit rate : 768 Kbps Channel(s) : 6 channels Channel positions : Front: L C R, Side: L R, LFE Sampling rate : 48.0 KHz Frame rate : 93.750 fps (512 spf) Bit depth : 24 bits Compression mode : Lossy Delay relative to video : -83ms Stream size : 568 MiB (14%) Title : Audio Español Latino DTS 5.1 @768Kbps - Papelillio Language : Spanish Default : Yes Forced : No Audio #2 ID : 3 Format : DTS Format/Info : Digital Theater Systems Mode : 16 Format settings, Endianness : Big Codec ID : A_DTS Duration : 1h 43mn Bit rate mode : Constant Bit rate : 1 509 Kbps Channel(s) : 6 channels Channel positions : Front: L C R, Side: L R, LFE Sampling rate : 48.0 KHz Frame rate : 93.750 fps (512 spf) Bit depth : 24 bits Compression mode : Lossy Delay relative to video : -83ms Stream size : 1.09 GiB (27%) Title : Audio Inglés DTS 5.1 @1509Kbps - Papelillio Language : English Default : No Forced : No Text #1 ID : 4 Format : UTF-8 Codec ID : S_TEXT/UTF8 Codec ID/Info : UTF-8 Plain Text Duration : 54mn 43s Bit rate : 0 bps Count of elements : 8 Stream size : 252 Bytes (0%) Title : Subtítulos Español Latino - Forzados (SRT) - Papelillio Language : Spanish Default : Yes Forced : No Text #2 ID : 5 Format : UTF-8 Codec ID : S_TEXT/UTF8 Codec ID/Info : UTF-8 Plain Text Duration : 1h 37mn Bit rate : 78 bps Count of elements : 1483 Stream size : 56.3 KiB (0%) Title : Subtítulos Español Latino (SRT) - Papelillio Language : Spanish Default : No Forced : No Text #3 ID : 6 Format : PGS Muxing mode : zlib Codec ID : S_HDMV/PGS Codec ID/Info : Picture based subtitle format used on BDs/HD-DVDs Duration : 1h 37mn Bit rate : 70 bps Count of elements : 42 Stream size : 50.7 KiB (0%) Title : Subtítulos Español Latino - Forzados (PGS) - Papelillio Language : Spanish Default : No Forced : No Text #4 ID : 7 Format : PGS Muxing mode : zlib Codec ID : S_HDMV/PGS Codec ID/Info : Picture based subtitle format used on BDs/HD-DVDs Duration : 1h 37mn Bit rate : 13.2 Kbps Count of elements : 2965 Stream size : 9.24 MiB (0%) Title : Subtítulos Español Latino (PGS) - Papelillio Language : Spanish Default : No Forced : No Menu 00:00:00.000 : :Chapter 1 00:07:26.279 : :Chapter 2 00:13:59.713 : :Chapter 3 00:16:41.458 : :Chapter 4 00:20:30.604 : :Chapter 5 00:21:46.096 : :Chapter 6 00:25:01.416 : :Chapter 7 00:29:55.793 : :Chapter 8 00:33:16.911 : :Chapter 9 00:38:38.691 : :Chapter 10 00:41:19.059 : :Chapter 11 00:42:41.850 : :Chapter 12 00:59:03.498 : :Chapter 13 01:02:57.315 : :Chapter 14 01:04:56.225 : :Chapter 15 01:08:15.966 : :Chapter 16 01:11:03.467 : :Chapter 17 01:13:10.761 : :Chapter 18 01:15:59.179 : :Chapter 19 01:19:01.569 : :Chapter 20 01:23:32.799 : :Chapter 21 01:27:11.517 : :Chapter 22 01:29:22.231 : :Chapter 23 01:30:30.216 : :Chapter 24 01:33:27.685 : :Chapter 25 01:36:12.433 : :Chapter 26 01:37:19.416 : :Chapter 27 01:38:10.134 : :Chapter 28

Capturas de la Pelicula

  • Captura de American Pie: La Boda (2003) UNRATED 1080p x265 HEVC Latino – Inglés
  • Captura de American Pie: La Boda (2003) UNRATED 1080p x265 HEVC Latino – Inglés
  • Captura de American Pie: La Boda (2003) UNRATED 1080p x265 HEVC Latino – Inglés
  • Captura de American Pie: La Boda (2003) UNRATED 1080p x265 HEVC Latino – Inglés
Lista de enlaces para usuarios donadores

Al donar para la pagina se obtiene acceso a una membresia para poder tener mas links de descargas.

  Enlaces Donadores
Enlaces para usuarios anonimos:

Si no tienes acceso a la membresia, igualmente puedes descargar desde nuestro sitio.

  Enlaces Publicos
Password: