Ver Trailer

MKV 1080p | x265 HEVC | Español Latino [AC3 5.1 BD + .SRT + PGS] - Inglés [AC3 5.1 BD] | 8.78GB

MediaInfo

General Complete name : Transformers.Dark.of.the.Moon.2011.1080p.BluRay.x265.HEVC.Dual.Latino-Papelillio.mkv Format : Matroska Format version : Version 4 / Version 2 File size : 8.78 GiB Duration : 2h 34mn Overall bit rate : 8 137 Kbps Encoded date : UTC 2016-03-16 00:52:24 Writing application : mkvmerge v7.9.0 ('Birds') 64bit Writing library : libebml v1.3.1 + libmatroska v1.4.2 Video ID : 1 Format : HEVC Format/Info : High Efficiency Video Coding Format profile : Main@L4@Main Codec ID : V_MPEGH/ISO/HEVC Duration : 2h 34mn Bit rate : 6 845 Kbps Width : 1 920 pixels Height : 1 080 pixels Display aspect ratio : 16:9 Frame rate mode : Constant Frame rate : 23.976 (24000/1001) fps Color space : YUV Chroma subsampling : 4:2:0 Bit depth : 8 bits Bits/(Pixel*Frame) : 0.138 Stream size : 7.38 GiB (84%) Title : Fuente Encodeo: BD50 - Papelillio Writing library : x265 1.9:[Windows][GCC 4.9.0][64 bit] 8bit Encoding settings : wpp / ctu=64 / min-cu-size=8 / max-tu-size=32 / tu-intra-depth=1 / tu-inter-depth=1 / me=3 / subme=3 / merange=57 / rect / no-amp / max-merge=3 / temporal-mvp / no-early-skip / rdpenalty=0 / no-tskip / no-tskip-fast / strong-intra-smoothing / no-lossless / no-cu-lossless / no-constrained-intra / no-fast-intra / open-gop / no-temporal-layers / interlace=0 / keyint=240 / min-keyint=24 / scenecut=40 / rc-lookahead=25 / lookahead-slices=4 / bframes=4 / bframe-bias=0 / b-adapt=2 / ref=4 / limit-refs=3 / limit-modes / weightp / no-weightb / aq-mode=1 / qg-size=32 / aq-strength=1.00 / cbqpoffs=0 / crqpoffs=0 / rd=4 / psy-rd=2.00 / rdoq-level=2 / psy-rdoq=1.00 / signhide / deblock / sao / no-sao-non-deblock / b-pyramid / cutree / no-intra-refresh / rc=crf / crf=20.0 / qcomp=0.60 / qpmin=0 / qpmax=51 / qpstep=4 / ipratio=1.40 / pbratio=1.30 Default : Yes Forced : No Color range : Limited Color primaries : BT.709 Transfer characteristics : BT.709 Matrix coefficients : BT.709 Audio #1 ID : 2 Format : AC-3 Format/Info : Audio Coding 3 Mode extension : CM (complete main) Format settings, Endianness : Big Codec ID : A_AC3 Duration : 2h 34mn Bit rate mode : Constant Bit rate : 640 Kbps Channel(s) : 6 channels Channel positions : Front: L C R, Side: L R, LFE Sampling rate : 48.0 KHz Frame rate : 31.250 fps (1536 spf) Compression mode : Lossy Delay relative to video : -83ms Stream size : 707 MiB (8%) Title : Audio Español Latino AC3 5.1 @640Kbps - Papelillio Language : Spanish Default : Yes Forced : No Audio #2 ID : 3 Format : AC-3 Format/Info : Audio Coding 3 Mode extension : CM (complete main) Format settings, Endianness : Big Codec ID : A_AC3 Duration : 2h 34mn Bit rate mode : Constant Bit rate : 640 Kbps Channel(s) : 6 channels Channel positions : Front: L C R, Side: L R, LFE Sampling rate : 48.0 KHz Frame rate : 31.250 fps (1536 spf) Compression mode : Lossy Delay relative to video : -83ms Stream size : 707 MiB (8%) Title : Audio Inglés AC3 5.1 @640Kbps - Papelillio Language : English Default : No Forced : No Text #1 ID : 4 Format : UTF-8 Codec ID : S_TEXT/UTF8 Codec ID/Info : UTF-8 Plain Text Duration : 22mn 22s Bit rate : 1 bps Count of elements : 8 Stream size : 277 Bytes (0%) Title : Subtítulos Español Latino - Forzados (SRT) - Papelillio Language : Spanish Default : Yes Forced : No Text #2 ID : 5 Format : UTF-8 Codec ID : S_TEXT/UTF8 Codec ID/Info : UTF-8 Plain Text Duration : 2h 25mn Bit rate : 59 bps Count of elements : 1838 Stream size : 64.1 KiB (0%) Title : Subtítulos Español Latino (SRT) - Papelillio Language : Spanish Default : No Forced : No Text #3 ID : 6 Format : PGS Muxing mode : zlib Codec ID : S_HDMV/PGS Codec ID/Info : Picture based subtitle format used on BDs/HD-DVDs Duration : 2h 25mn Bit rate : 10.6 Kbps Count of elements : 3676 Stream size : 11.1 MiB (0%) Title : Subtítulos Español Latino (PGS) - Papelillio Language : Spanish Default : No Forced : No Menu 00:00:00.000 : :Chapter 1 00:08:52.657 : :Chapter 2 00:14:26.699 : :Chapter 3 00:20:21.011 : :Chapter 4 00:28:48.226 : :Chapter 5 00:36:18.718 : :Chapter 6 00:45:18.632 : :Chapter 7 00:51:53.110 : :Chapter 8 00:56:34.307 : :Chapter 9 01:04:13.391 : :Chapter 10 01:12:56.789 : :Chapter 11 01:19:09.161 : :Chapter 12 01:23:41.474 : :Chapter 13 01:28:44.902 : :Chapter 14 01:35:13.165 : :Chapter 15 01:42:44.241 : :Chapter 16 01:49:12.420 : :Chapter 17 01:56:42.996 : :Chapter 18 02:04:59.200 : :Chapter 19 02:11:29.673 : :Chapter 20 02:19:10.967 : :Chapter 21 02:25:37.603 : :Chapter 22

Capturas de la Pelicula

  • Captura de Transformers: El Lado Oscuro de la Luna (2011) 1080p x265 HEVC Latino – Inglés
  • Captura de Transformers: El Lado Oscuro de la Luna (2011) 1080p x265 HEVC Latino – Inglés
  • Captura de Transformers: El Lado Oscuro de la Luna (2011) 1080p x265 HEVC Latino – Inglés
  • Captura de Transformers: El Lado Oscuro de la Luna (2011) 1080p x265 HEVC Latino – Inglés
Lista de enlaces para usuarios donadores

Al donar para la pagina se obtiene acceso a una membresia para poder tener mas links de descargas.

  Enlaces Donadores
Enlaces para usuarios anonimos:

Si no tienes acceso a la membresia, igualmente puedes descargar desde nuestro sitio.

  Enlaces Publicos
Password: