Ver Trailer

MKV 1080p | x265 HEVC | Español Latino [DTS 5.1 BD + .SRT + PGS] - Inglés [DTS 5.1 BD] | 5.33GB

MediaInfo

General Complete name : American.Pie.2.2001.UNRATED.1080p.BluRay.x265.HEVC.DTS.Dual.Latino-Papelillio.mkv Format : Matroska Format version : Version 4 / Version 2 File size : 5.33 GiB Duration : 1h 50mn Overall bit rate : 6 897 Kbps Encoded date : UTC 2016-02-21 04:40:28 Writing application : mkvmerge v7.9.0 ('Birds') 64bit Writing library : libebml v1.3.1 + libmatroska v1.4.2 Video ID : 1 Format : HEVC Format/Info : High Efficiency Video Coding Format profile : Main@L4@Main Codec ID : V_MPEGH/ISO/HEVC Duration : 1h 50mn Bit rate : 4 607 Kbps Width : 1 920 pixels Height : 1 080 pixels Display aspect ratio : 16:9 Frame rate mode : Constant Frame rate : 23.976 (24000/1001) fps Color space : YUV Chroma subsampling : 4:2:0 Bit depth : 8 bits Bits/(Pixel*Frame) : 0.093 Stream size : 3.56 GiB (67%) Title : Fuente Encodeo: BD50 - Papelillio Writing library : x265 1.9:[Windows][GCC 4.9.0][64 bit] 8bit Encoding settings : wpp / ctu=64 / min-cu-size=8 / max-tu-size=32 / tu-intra-depth=1 / tu-inter-depth=1 / me=3 / subme=3 / merange=57 / rect / no-amp / max-merge=3 / temporal-mvp / no-early-skip / rdpenalty=0 / no-tskip / no-tskip-fast / strong-intra-smoothing / no-lossless / no-cu-lossless / no-constrained-intra / no-fast-intra / open-gop / no-temporal-layers / interlace=0 / keyint=240 / min-keyint=24 / scenecut=40 / rc-lookahead=25 / lookahead-slices=4 / bframes=4 / bframe-bias=0 / b-adapt=2 / ref=4 / limit-refs=3 / limit-modes / weightp / no-weightb / aq-mode=1 / qg-size=32 / aq-strength=1.00 / cbqpoffs=0 / crqpoffs=0 / rd=4 / psy-rd=2.00 / rdoq-level=2 / psy-rdoq=1.00 / signhide / deblock / sao / no-sao-non-deblock / b-pyramid / cutree / no-intra-refresh / rc=crf / crf=19.0 / qcomp=0.60 / qpmin=0 / qpmax=51 / qpstep=4 / ipratio=1.40 / pbratio=1.30 Default : Yes Forced : No Color range : Limited Color primaries : BT.709 Transfer characteristics : BT.709 Matrix coefficients : BT.709 Audio #1 ID : 2 Format : DTS Format/Info : Digital Theater Systems Mode : 16 Format settings, Endianness : Big Codec ID : A_DTS Duration : 1h 50mn Bit rate mode : Constant Bit rate : 768 Kbps Channel(s) : 6 channels Channel positions : Front: L C R, Side: L R, LFE Sampling rate : 48.0 KHz Frame rate : 93.750 fps (512 spf) Bit depth : 24 bits Compression mode : Lossy Delay relative to video : -83ms Stream size : 608 MiB (11%) Title : Audio Español Latino DTS 5.1 @768Kbps - Papelillio Language : Spanish Default : Yes Forced : No Audio #2 ID : 3 Format : DTS Format/Info : Digital Theater Systems Mode : 16 Format settings, Endianness : Big Codec ID : A_DTS Duration : 1h 50mn Bit rate mode : Constant Bit rate : 1 509 Kbps Channel(s) : 6 channels Channel positions : Front: L C R, Side: L R, LFE Sampling rate : 48.0 KHz Frame rate : 93.750 fps (512 spf) Bit depth : 24 bits Compression mode : Lossy Delay relative to video : -83ms Stream size : 1.17 GiB (22%) Title : Audio Inglés DTS 5.1 @1509Kbps - Papelillio Language : English Default : No Forced : No Text #1 ID : 4 Format : UTF-8 Codec ID : S_TEXT/UTF8 Codec ID/Info : UTF-8 Plain Text Duration : 54mn 38s Bit rate : 0 bps Count of elements : 5 Stream size : 105 Bytes (0%) Title : Subtítulos Español Latino - Forzados (SRT) - Papelillio Language : Spanish Default : Yes Forced : No Text #2 ID : 5 Format : UTF-8 Codec ID : S_TEXT/UTF8 Codec ID/Info : UTF-8 Plain Text Duration : 1h 43mn Bit rate : 54 bps Count of elements : 1510 Stream size : 41.3 KiB (0%) Title : Subtítulos Español Latino (SRT) - Papelillio Language : Spanish Default : No Forced : No Text #3 ID : 6 Format : PGS Muxing mode : zlib Codec ID : S_HDMV/PGS Codec ID/Info : Picture based subtitle format used on BDs/HD-DVDs Duration : 54mn 38s Bit rate : 52 bps Count of elements : 10 Stream size : 21.2 KiB (0%) Title : Subtítulos Español Latino - Forzados (PGS) - Papelillio Language : Spanish Default : No Forced : No Text #4 ID : 7 Format : PGS Muxing mode : zlib Codec ID : S_HDMV/PGS Codec ID/Info : Picture based subtitle format used on BDs/HD-DVDs Duration : 1h 43mn Bit rate : 10.4 Kbps Count of elements : 3020 Stream size : 7.70 MiB (0%) Title : Subtítulos Español Latino (PGS) - Papelillio Language : Spanish Default : No Forced : No Menu 00:00:00.000 : :Chapter 1 00:06:15.166 : :Chapter 2 00:08:34.013 : :Chapter 3 00:15:53.702 : :Chapter 4 00:20:22.095 : :Chapter 5 00:22:41.902 : :Chapter 6 00:27:22.307 : :Chapter 7 00:34:31.361 : :Chapter 8 00:38:09.287 : :Chapter 9 00:41:33.491 : :Chapter 10 00:44:11.190 : :Chapter 11 00:57:56.222 : :Chapter 12 01:05:34.388 : :Chapter 13 01:14:42.311 : :Chapter 14 01:18:10.018 : :Chapter 15 01:24:02.912 : :Chapter 16 01:28:26.342 : :Chapter 17 01:36:27.531 : :Chapter 18 01:41:07.644 : :Chapter 19 01:44:04.446 : :Chapter 20

Capturas de la Pelicula

  • Captura de American Pie 2 (2001) UNRATED 1080p x265 HEVC Latino – Inglés
  • Captura de American Pie 2 (2001) UNRATED 1080p x265 HEVC Latino – Inglés
  • Captura de American Pie 2 (2001) UNRATED 1080p x265 HEVC Latino – Inglés
  • Captura de American Pie 2 (2001) UNRATED 1080p x265 HEVC Latino – Inglés
Lista de enlaces para usuarios donadores

Al donar para la pagina se obtiene acceso a una membresia para poder tener mas links de descargas.

  Enlaces Donadores
Enlaces para usuarios anonimos:

Si no tienes acceso a la membresia, igualmente puedes descargar desde nuestro sitio.

  Enlaces Publicos
Password: