Ver Trailer

MKV 1080p | x265 HEVC | Español Latino DTS 5.1 [768 Kbps] + Inglés DTS 5.1 [1509 Kbps] | 4.81GB

MediaInfo

12 Horas Para Sobrevivir El Año De La Elección (2016) 1080p BluRay x265 HEVC DTS Dual Latino.mkv Format : Matroska Format version : Version 4 / Version 2 File size : 4.81 GiB Duration : 1h 48mn Overall bit rate : 6 323 Kbps Encoded date : UTC 2016-09-24 18:13:09 Writing application : mkvmerge v8.6.1 ('Flying') 64bit Writing library : libebml v1.3.3 + libmatroska v1.4.4 DURATION : 01:47:34.907000000 NUMBER_OF_FRAMES : 44 NUMBER_OF_BYTES : 473054 _STATISTICS_WRITING_APP : mkvmerge v8.6.1 ('Flying') 64bit _STATISTICS_WRITING_DATE_UT : 2016-09-24 18:13:09 _STATISTICS_TAGS : BPS DURATION NUMBER_OF_FRAMES NUMBER_OF_BYTES Video ID : 1 Format : HEVC Format/Info : High Efficiency Video Coding Format profile : Main@L4@Main Codec ID : V_MPEGH/ISO/HEVC Bit rate : 3 921 Kbps Width : 1 920 pixels Height : 1 080 pixels Display aspect ratio : 16:9 Frame rate mode : Variable Original frame rate : 23.976 fps Color space : YUV Chroma subsampling : 4:2:0 Bit depth : 8 bits Writing library : x265 1.9:[Windows][GCC 4.9.0][64 bit] 8bit Encoding settings : wpp / ctu=64 / min-cu-size=8 / max-tu-size=32 / tu-intra-depth=1 / tu-inter-depth=1 / me=3 / subme=3 / merange=57 / rect / no-amp / max-merge=3 / temporal-mvp / no-early-skip / rdpenalty=0 / no-tskip / no-tskip-fast / strong-intra-smoothing / no-lossless / no-cu-lossless / no-constrained-intra / no-fast-intra / open-gop / no-temporal-layers / interlace=0 / keyint=240 / min-keyint=24 / scenecut=40 / rc-lookahead=25 / lookahead-slices=4 / bframes=4 / bframe-bias=0 / b-adapt=2 / ref=4 / limit-refs=3 / limit-modes / weightp / no-weightb / aq-mode=1 / qg-size=32 / aq-strength=1.00 / cbqpoffs=0 / crqpoffs=0 / rd=4 / psy-rd=2.00 / rdoq-level=2 / psy-rdoq=1.00 / signhide / deblock / sao / no-sao-non-deblock / b-pyramid / cutree / no-intra-refresh / rc=crf / crf=19.0 / qcomp=0.60 / qpmin=0 / qpmax=51 / qpstep=4 / ipratio=1.40 / pbratio=1.30 Default : Yes Forced : No Color range : Limited Color primaries : BT.709 Transfer characteristics : BT.709 Matrix coefficients : BT.709 DURATION : 01:48:47.521000000 NUMBER_OF_FRAMES : 156502 NUMBER_OF_BYTES : 3273402138 _STATISTICS_WRITING_APP : mkvmerge v8.6.1 ('Flying') 64bit _STATISTICS_WRITING_DATE_UT : 2016-09-24 18:13:09 _STATISTICS_TAGS : BPS DURATION NUMBER_OF_FRAMES NUMBER_OF_BYTES Audio #1 ID : 2 Format : DTS Format/Info : Digital Theater Systems Mode : 16 Format settings, Endianness : Big Codec ID : A_DTS Duration : 1h 48mn Bit rate mode : Constant Bit rate : 768 Kbps Channel(s) : 6 channels Channel positions : Front: L C R, Side: L R, LFE Sampling rate : 48.0 KHz Bit depth : 24 bits Compression mode : Lossy Delay relative to video : -125ms Stream size : 598 MiB (12%) Title : Español Latino DTS 5.1 [768 Kbps] Language : Spanish Default : Yes Forced : No Audio #2 ID : 3 Format : DTS Format/Info : Digital Theater Systems Mode : 16 Format settings, Endianness : Big Codec ID : A_DTS Duration : 1h 48mn Bit rate mode : Constant Bit rate : 1 509 Kbps Channel(s) : 6 channels Channel positions : Front: L C R, Side: L R, LFE Sampling rate : 48.0 KHz Bit depth : 24 bits Compression mode : Lossy Delay relative to video : -125ms Stream size : 1.15 GiB (24%) Title : Inglés DTS 5.1 [1509 Kbps] Language : English Default : No Forced : No Text #1 ID : 4 Format : PGS Codec ID : S_HDMV/PGS Codec ID/Info : Picture based subtitle format used on BDs/HD-DVDs Title : Subtítulos Español Latino (PGS) Language : Spanish Default : No Forced : No Text #2 ID : 5 Format : PGS Codec ID : S_HDMV/PGS Codec ID/Info : Picture based subtitle format used on BDs/HD-DVDs Title : Subtítulos Español Latino - Forzados (PGS) Language : Spanish Default : Yes Forced : No Menu 00:00:00.000 : :Chapter 1 00:05:47.263 : :Chapter 2 00:09:21.936 : :Chapter 3 00:17:15.451 : :Chapter 4 00:22:49.576 : :Chapter 5 00:28:43.263 : :Chapter 6 00:35:58.573 : :Chapter 7 00:41:50.258 : :Chapter 8 00:47:03.195 : :Chapter 9 00:53:30.457 : :Chapter 10 00:57:31.615 : :Chapter 11 01:02:20.904 : :Chapter 12 01:10:43.698 : :Chapter 13 01:17:32.815 : :Chapter 14 01:22:16.848 : :Chapter 15 01:27:02.592 : :Chapter 16 01:32:12.902 : :Chapter 17 01:36:17.563 : :Chapter 18 01:41:35.464 : :Chapter 19 01:43:36.835 : :Chapter 20

Capturas de la Pelicula

  • Captura de 12 Horas Para Sobrevivir El Año De La Elección (2016) 1080p BluRay x265 HEVC DTS Dual Latino
  • Captura de 12 Horas Para Sobrevivir El Año De La Elección (2016) 1080p BluRay x265 HEVC DTS Dual Latino
  • Captura de 12 Horas Para Sobrevivir El Año De La Elección (2016) 1080p BluRay x265 HEVC DTS Dual Latino
  • Captura de 12 Horas Para Sobrevivir El Año De La Elección (2016) 1080p BluRay x265 HEVC DTS Dual Latino
Lista de enlaces para usuarios donadores

Al donar para la pagina se obtiene acceso a una membresia para poder tener mas links de descargas.

  Enlaces Donadores
Enlaces para usuarios anonimos:

Si no tienes acceso a la membresia, igualmente puedes descargar desde nuestro sitio.

  Enlaces Publicos
Password: